  0
SECTION
  2
HEADER
  9
$ACADVER
  1
AC1018
  9
$ACADMAINTVER
 70
     0
  9
$DWGCODEPAGE
  3
ANSI_936
  9
$INSBASE
 10
0.0
 20
0.0
 30
0.0
  9
$EXTMIN
 10
193.7170299555843
 20
49.34808256086122
 30
0.0
  9
$EXTMAX
 10
236.3481978353523
 20
230.2382990790246
 30
0.0
  9
$LIMMIN
 10
0.0
 20
0.0
  9
$LIMMAX
 10
420.0
 20
297.0
  9
$ORTHOMODE
 70
     1
  9
$REGENMODE
 70
     1
  9
$FILLMODE
 70
     1
  9
$QTEXTMODE
 70
     0
  9
$MIRRTEXT
 70
     0
  9
$LTSCALE
 40
1.0
  9
$ATTMODE
 70
     1
  9
$TEXTSIZE
 40
2.5
  9
$TRACEWID
 40
1.0
  9
$TEXTSTYLE
  7
Standard
  9
$CLAYER
  8
标注
  9
$CELTYPE
  6
ByLayer
  9
$CECOLOR
 62
   256
  9
$CELTSCALE
 40
1.0
  9
$DISPSILH
 70
     0
  9
$DIMSCALE
 40
1.0
  9
$DIMASZ
 40
0.65
  9
$DIMEXO
 40
0.88
  9
$DIMDLI
 40
0.015
  9
$DIMRND
 40
0.0
  9
$DIMDLE
 40
0.0
  9
$DIMEXE
 40
0.32
  9
$DIMTP
 40
0.0
  9
$DIMTM
 40
0.0
  9
$DIMTXT
 40
0.65
  9
$DIMCEN
 40
0.09
  9
$DIMTSZ
 40
0.0
  9
$DIMTOL
 70
     0
  9
$DIMLIM
 70
     0
  9
$DIMTIH
 70
     0
  9
$DIMTOH
 70
     0
  9
$DIMSE1
 70
     0
  9
$DIMSE2
 70
     0
  9
$DIMTAD
 70
     0
  9
$DIMZIN
 70
     8
  9
$DIMBLK
  1

  9
$DIMASO
 70
     1
  9
$DIMSHO
 70
     1
  9
$DIMPOST
  1
"
  9
$DIMAPOST
  1
"
  9
$DIMALT
 70
     0
  9
$DIMALTD
 70
     1
  9
$DIMALTF
 40
0.03937
  9
$DIMLFAC
 40
1.0
  9
$DIMTOFL
 70
     1
  9
$DIMTVP
 40
0.0
  9
$DIMTIX
 70
     0
  9
$DIMSOXD
 70
     0
  9
$DIMSAH
 70
     0
  9
$DIMBLK1
  1

  9
$DIMBLK2
  1

  9
$DIMSTYLE
  2
副本Standard
  9
$DIMCLRD
 70
   256
  9
$DIMCLRE
 70
   256
  9
$DIMCLRT
 70
   256
  9
$DIMTFAC
 40
1.0
  9
$DIMGAP
 40
0.2
  9
$DIMJUST
 70
     0
  9
$DIMSD1
 70
     0
  9
$DIMSD2
 70
     0
  9
$DIMTOLJ
 70
     1
  9
$DIMTZIN
 70
     0
  9
$DIMALTZ
 70
     0
  9
$DIMALTTZ
 70
     0
  9
$DIMUPT
 70
     0
  9
$DIMDEC
 70
     3
  9
$DIMTDEC
 70
     3
  9
$DIMALTU
 70
     2
  9
$DIMALTTD
 70
     1
  9
$DIMTXSTY
  7
Standard
  9
$DIMAUNIT
 70
     0
  9
$DIMADEC
 70
     1
  9
$DIMALTRND
 40
0.0
  9
$DIMAZIN
 70
     2
  9
$DIMDSEP
 70
    44
  9
$DIMATFIT
 70
     3
  9
$DIMFRAC
 70
     2
  9
$DIMLDRBLK
  1

  9
$DIMLUNIT
 70
     5
  9
$DIMLWD
 70
    -2
  9
$DIMLWE
 70
    -2
  9
$DIMTMOVE
 70
     0
  9
$LUNITS
 70
     2
  9
$LUPREC
 70
     4
  9
$SKETCHINC
 40
1.0
  9
$FILLETRAD
 40
2.0
  9
$AUNITS
 70
     0
  9
$AUPREC
 70
     0
  9
$MENU
  1
.
  9
$ELEVATION
 40
0.0
  9
$PELEVATION
 40
0.0
  9
$THICKNESS
 40
0.0
  9
$LIMCHECK
 70
     0
  9
$CHAMFERA
 40
0.0
  9
$CHAMFERB
 40
0.0
  9
$CHAMFERC
 40
0.0
  9
$CHAMFERD
 40
0.0
  9
$SKPOLY
 70
     0
  9
$TDCREATE
 40
2455855.628782743
  9
$TDUCREATE
 40
2455855.295449410
  9
$TDUPDATE
 40
2455860.563026621
  9
$TDUUPDATE
 40
2455860.229693287
  9
$TDINDWG
 40
0.0100600347
  9
$TDUSRTIMER
 40
0.0100596759
  9
$USRTIMER
 70
     1
  9
$ANGBASE
 50
0.0
  9
$ANGDIR
 70
     0
  9
$PDMODE
 70
     0
  9
$PDSIZE
 40
0.0
  9
$PLINEWID
 40
0.0
  9
$SPLFRAME
 70
     0
  9
$SPLINETYPE
 70
     6
  9
$SPLINESEGS
 70
     8
  9
$HANDSEED
  5
73E
  9
$SURFTAB1
 70
     6
  9
$SURFTAB2
 70
     6
  9
$SURFTYPE
 70
     6
  9
$SURFU
 70
     6
  9
$SURFV
 70
     6
  9
$UCSBASE
  2

  9
$UCSNAME
  2

  9
$UCSORG
 10
0.0
 20
0.0
 30
0.0
  9
$UCSXDIR
 10
1.0
 20
0.0
 30
0.0
  9
$UCSYDIR
 10
0.0
 20
1.0
 30
0.0
  9
$UCSORTHOREF
  2

  9
$UCSORTHOVIEW
 70
     0
  9
$UCSORGTOP
 10
0.0
 20
0.0
 30
0.0
  9
$UCSORGBOTTOM
 10
0.0
 20
0.0
 30
0.0
  9
$UCSORGLEFT
 10
0.0
 20
0.0
 30
0.0
  9
$UCSORGRIGHT
 10
0.0
 20
0.0
 30
0.0
  9
$UCSORGFRONT
 10
0.0
 20
0.0
 30
0.0
  9
$UCSORGBACK
 10
0.0
 20
0.0
 30
0.0
  9
$PUCSBASE
  2

  9
$PUCSNAME
  2

  9
$PUCSORG
 10
0.0
 20
0.0
 30
0.0
  9
$PUCSXDIR
 10
1.0
 20
0.0
 30
0.0
  9
$PUCSYDIR
 10
0.0
 20
1.0
 30
0.0
  9
$PUCSORTHOREF
  2

  9
$PUCSORTHOVIEW
 70
     0
  9
$PUCSORGTOP
 10
0.0
 20
0.0
 30
0.0
  9
$PUCSORGBOTTOM
 10
0.0
 20
0.0
 30
0.0
  9
$PUCSORGLEFT
 10
0.0
 20
0.0
 30
0.0
  9
$PUCSORGRIGHT
 10
0.0
 20
0.0
 30
0.0
  9
$PUCSORGFRONT
 10
0.0
 20
0.0
 30
0.0
  9
$PUCSORGBACK
 10
0.0
 20
0.0
 30
0.0
  9
$USERI1
 70
     0
  9
$USERI2
 70
     0
  9
$USERI3
 70
     0
  9
$USERI4
 70
     0
  9
$USERI5
 70
     0
  9
$USERR1
 40
0.0
  9
$USERR2
 40
0.0
  9
$USERR3
 40
0.0
  9
$USERR4
 40
0.0
  9
$USERR5
 40
0.0
  9
$WORLDVIEW
 70
     1
  9
$SHADEDGE
 70
     3
  9
$SHADEDIF
 70
    70
  9
$TILEMODE
 70
     1
  9
$MAXACTVP
 70
    64
  9
$PINSBASE
 10
0.0
 20
0.0
 30
0.0
  9
$PLIMCHECK
 70
     0
  9
$PEXTMIN
 10
1.000000000000000E+20
 20
1.000000000000000E+20
 30
1.000000000000000E+20
  9
$PEXTMAX
 10
-1.000000000000000E+20
 20
-1.000000000000000E+20
 30
-1.000000000000000E+20
  9
$PLIMMIN
 10
0.0
 20
0.0
  9
$PLIMMAX
 10
420.0
 20
297.0
  9
$UNITMODE
 70
     0
  9
$VISRETAIN
 70
     1
  9
$PLINEGEN
 70
     0
  9
$PSLTSCALE
 70
     1
  9
$TREEDEPTH
 70
  3020
  9
$CMLSTYLE
  2
Standard
  9
$CMLJUST
 70
     0
  9
$CMLSCALE
 40
20.0
  9
$PROXYGRAPHICS
 70
     1
  9
$MEASUREMENT
 70
     1
  9
$CELWEIGHT
370
    -1
  9
$ENDCAPS
280
     0
  9
$JOINSTYLE
280
     0
  9
$LWDISPLAY
290
     0
  9
$INSUNITS
 70
     4
  9
$HYPERLINKBASE
  1

  9
$STYLESHEET
  1

  9
$XEDIT
290
     1
  9
$CEPSNTYPE
380
     0
  9
$PSTYLEMODE
290
     1
  9
$FINGERPRINTGUID
  2
{B48F46D2-D0EA-4C00-A4A8-23CB7417C210}
  9
$VERSIONGUID
  2
{8E2557BC-0F56-4E76-8CC2-4B24EBBD1F84}
  9
$EXTNAMES
290
     1
  9
$PSVPSCALE
 40
0.0
  9
$OLESTARTUP
290
     0
  9
$SORTENTS
280
   127
  9
$INDEXCTL
280
     0
  9
$HIDETEXT
280
     1
  9
$XCLIPFRAME
290
     0
  9
$HALOGAP
280
     0
  9
$OBSCOLOR
 70
   257
  9
$OBSLTYPE
280
     0
  9
$INTERSECTIONDISPLAY
280
     0
  9
$INTERSECTIONCOLOR
 70
   257
  9
$DIMASSOC
280
     2
  9
$PROJECTNAME
  1

  0
ENDSEC
  0
SECTION
  2
CLASSES
  0
CLASS
  1
ACDBDICTIONARYWDFLT
  2
AcDbDictionaryWithDefault
  3
ObjectDBX Classes
 90
        0
 91
        1
280
     0
281
     0
  0
CLASS
  1
DIMASSOC
  2
AcDbDimAssoc
  3
"AcDbDimAssoc|Product Desc:     AcDim ARX App For Dimension|Company:          Autodesk, Inc.|WEB Address:      www.autodesk.com"
 90
        0
 91
       13
280
     0
281
     0
  0
ENDSEC
  0
SECTION
  2
TABLES
  0
TABLE
  2
VPORT
  5
8
330
0
100
AcDbSymbolTable
 70
     2
  0
VPORT
  5
73D
330
8
100
AcDbSymbolTableRecord
100
AcDbViewportTableRecord
  2
*Active
 70
     0
 10
0.0
 20
0.0
 11
1.0
 21
1.0
 12
238.1505292699538
 22
145.0876308805652
 13
0.0
 23
0.0
 14
10.0
 24
10.0
 15
10.0
 25
10.0
 16
0.0
 26
0.0
 36
1.0
 17
0.0
 27
0.0
 37
0.0
 40
320.2491529972637
 41
1.518855656697009
 42
50.0
 43
0.0
 44
0.0
 50
0.0
 51
0.0
 71
     0
 72
  1000
 73
     1
 74
     3
 75
     0
 76
     0
 77
     0
 78
     0
281
     0
 65
     1
110
0.0
120
0.0
130
0.0
111
1.0
121
0.0
131
0.0
112
0.0
122
1.0
132
0.0
 79
     0
146
0.0
  0
ENDTAB
  0
TABLE
  2
LTYPE
  5
5
330
0
100
AcDbSymbolTable
 70
     3
  0
LTYPE
  5
14
330
5
100
AcDbSymbolTableRecord
100
AcDbLinetypeTableRecord
  2
ByBlock
 70
     0
  3

 72
    65
 73
     0
 40
0.0
  0
LTYPE
  5
15
330
5
100
AcDbSymbolTableRecord
100
AcDbLinetypeTableRecord
  2
ByLayer
 70
     0
  3

 72
    65
 73
     0
 40
0.0
  0
LTYPE
  5
16
330
5
100
AcDbSymbolTableRecord
100
AcDbLinetypeTableRecord
  2
Continuous
 70
     0
  3
Solid line
 72
    65
 73
     0
 40
0.0
  0
LTYPE
  5
ED
330
5
100
AcDbSymbolTableRecord
100
AcDbLinetypeTableRecord
  2
CENTER2
 70
     0
  3
Center (.5x) ___ _ ___ _ ___ _ ___ _ ___ _ ___
 72
    65
 73
     4
 40
28.575
 49
19.05
 74
     0
 49
-3.174999999999998
 74
     0
 49
3.174999999999998
 74
     0
 49
-3.174999999999998
 74
     0
  0
LTYPE
  5
EE
330
5
100
AcDbSymbolTableRecord
100
AcDbLinetypeTableRecord
  2
HIDDEN2
 70
     0
  3
Hidden (.5x) _ _ _ _ _ _ _ _ _ _ _ _ _ _ _ _ _
 72
    65
 73
     2
 40
4.762499999999998
 49
3.174999999999998
 74
     0
 49
-1.587499999999999
 74
     0
  0
ENDTAB
  0
TABLE
  2
LAYER
  5
2
102
{ACAD_XDICTIONARY
360
F7
102
}
330
0
100
AcDbSymbolTable
 70
     6
  0
LAYER
  5
10
330
2
100
AcDbSymbolTableRecord
100
AcDbLayerTableRecord
  2
0
 70
     0
 62
     7
  6
Continuous
370
    -3
390
F
  0
LAYER
  5
EF
330
2
100
AcDbSymbolTableRecord
100
AcDbLayerTableRecord
  2
中心线
 70
     0
 62
     1
  6
CENTER2
370
    -3
390
F
  0
LAYER
  5
F0
330
2
100
AcDbSymbolTableRecord
100
AcDbLayerTableRecord
  2
虚线
 70
     0
 62
     4
  6
HIDDEN2
370
    -3
390
F
  0
LAYER
  5
F1
330
2
100
AcDbSymbolTableRecord
100
AcDbLayerTableRecord
  2
Defpoints
 70
     0
 62
     7
  6
Continuous
290
     0
370
    -3
390
F
  0
LAYER
  5
F2
330
2
100
AcDbSymbolTableRecord
100
AcDbLayerTableRecord
  2
标注
 70
     0
 62
    80
  6
Continuous
370
     5
390
F
1001
AcAecLayerStandard
1000

1000

  0
LAYER
  5
F3
330
2
100
AcDbSymbolTableRecord
100
AcDbLayerTableRecord
  2
截面层
 70
     0
 62
     6
  6
Continuous
370
    50
390
F
  0
ENDTAB
  0
TABLE
  2
STYLE
  5
3
330
0
100
AcDbSymbolTable
 70
     1
  0
STYLE
  5
11
330
3
100
AcDbSymbolTableRecord
100
AcDbTextStyleTableRecord
  2
Standard
 70
     0
 40
0.0
 41
1.0
 50
0.0
 71
     0
 42
2.5
  3
txt
  4

  0
ENDTAB
  0
TABLE
  2
VIEW
  5
6
330
0
100
AcDbSymbolTable
 70
     0
  0
ENDTAB
  0
TABLE
  2
UCS
  5
7
330
0
100
AcDbSymbolTable
 70
     0
  0
ENDTAB
  0
TABLE
  2
APPID
  5
9
330
0
100
AcDbSymbolTable
 70
     2
  0
APPID
  5
12
330
9
100
AcDbSymbolTableRecord
100
AcDbRegAppTableRecord
  2
ACAD
 70
     0
  0
APPID
  5
F6
330
9
100
AcDbSymbolTableRecord
100
AcDbRegAppTableRecord
  2
AcAecLayerStandard
 70
     0
  0
ENDTAB
  0
TABLE
  2
DIMSTYLE
  5
A
330
0
100
AcDbSymbolTable
 70
     3
100
AcDbDimStyleTable
 71
     2
340
F5
340
29
  0
DIMSTYLE
105
29
330
A
100
AcDbSymbolTableRecord
100
AcDbDimStyleTableRecord
  2
ISO-25
 70
     0
 41
2.5
 42
0.625
 43
3.75
 44
1.25
 73
     0
 74
     0
 77
     1
 78
     8
140
2.5
141
2.5
143
0.03937007874016
147
0.625
171
     3
172
     1
271
     2
272
     2
274
     3
283
     0
284
     8
340
11
  0
DIMSTYLE
105
F4
330
A
100
AcDbSymbolTableRecord
100
AcDbDimStyleTableRecord
  2
Standard
 70
     0
340
11
  0
DIMSTYLE
105
F5
102
{ACAD_REACTORS
330
4B2
330
4AB
330
4EC
330
4E9
330
4E8
330
4E5
330
4E2
330
503
330
502
330
4FF
330
4FE
330
4FB
330
4F8
330
4F5
330
4F2
330
4EF
330
4A8
102
}
330
A
100
AcDbSymbolTableRecord
100
AcDbDimStyleTableRecord
  2
副本Standard
 70
     0
  3
"
  4
"
 41
0.65
 42
0.88
 43
0.015
 44
0.32
 73
     0
 74
     0
 78
     8
 79
     2
140
0.65
143
0.03937
147
0.2
171
     1
172
     1
176
   256
177
   256
178
   256
179
     1
271
     3
272
     3
274
     1
276
     2
277
     5
278
    44
340
11
  0
ENDTAB
  0
TABLE
  2
BLOCK_RECORD
  5
1
330
0
100
AcDbSymbolTable
 70
    55
  0
BLOCK_RECORD
  5
21
330
1
100
AcDbSymbolTableRecord
100
AcDbBlockTableRecord
  2
*Model_Space
340
24
  0
BLOCK_RECORD
  5
1D
330
1
100
AcDbSymbolTableRecord
100
AcDbBlockTableRecord
  2
*Paper_Space
340
20
  0
BLOCK_RECORD
  5
25
330
1
100
AcDbSymbolTableRecord
100
AcDbBlockTableRecord
  2
*Paper_Space0
340
28
  0
BLOCK_RECORD
  5
59A
330
1
100
AcDbSymbolTableRecord
100
AcDbBlockTableRecord
  2
*D38
340
0
  0
BLOCK_RECORD
  5
5A7
330
1
100
AcDbSymbolTableRecord
100
AcDbBlockTableRecord
  2
*D39
340
0
  0
BLOCK_RECORD
  5
5B5
330
1
100
AcDbSymbolTableRecord
100
AcDbBlockTableRecord
  2
*D40
340
0
  0
BLOCK_RECORD
  5
5C3
330
1
100
AcDbSymbolTableRecord
100
AcDbBlockTableRecord
  2
*D41
340
0
  0
BLOCK_RECORD
  5
5D0
330
1
100
AcDbSymbolTableRecord
100
AcDbBlockTableRecord
  2
*D42
340
0
  0
BLOCK_RECORD
  5
5D8
330
1
100
AcDbSymbolTableRecord
100
AcDbBlockTableRecord
  2
*D43
340
0
  0
BLOCK_RECORD
  5
5E5
330
1
100
AcDbSymbolTableRecord
100
AcDbBlockTableRecord
  2
*D44
340
0
  0
BLOCK_RECORD
  5
5FC
330
1
100
AcDbSymbolTableRecord
100
AcDbBlockTableRecord
  2
*D45
340
0
  0
BLOCK_RECORD
  5
609
330
1
100
AcDbSymbolTableRecord
100
AcDbBlockTableRecord
  2
*D46
340
0
  0
BLOCK_RECORD
  5
616
330
1
100
AcDbSymbolTableRecord
100
AcDbBlockTableRecord
  2
*D47
340
0
  0
BLOCK_RECORD
  5
62F
330
1
100
AcDbSymbolTableRecord
100
AcDbBlockTableRecord
  2
*D48
340
0
  0
BLOCK_RECORD
  5
648
330
1
100
AcDbSymbolTableRecord
100
AcDbBlockTableRecord
  2
*D49
340
0
  0
BLOCK_RECORD
  5
650
330
1
100
AcDbSymbolTableRecord
100
AcDbBlockTableRecord
  2
*D50
340
0
  0
BLOCK_RECORD
  5
658
330
1
100
AcDbSymbolTableRecord
100
AcDbBlockTableRecord
  2
*D51
340
0
  0
BLOCK_RECORD
  5
665
330
1
100
AcDbSymbolTableRecord
100
AcDbBlockTableRecord
  2
*D52
340
0
  0
BLOCK_RECORD
  5
672
330
1
100
AcDbSymbolTableRecord
100
AcDbBlockTableRecord
  2
*D53
340
0
  0
BLOCK_RECORD
  5
67F
330
1
100
AcDbSymbolTableRecord
100
AcDbBlockTableRecord
  2
*D54
340
0
  0
ENDTAB
  0
ENDSEC
  0
SECTION
  2
BLOCKS
  0
BLOCK
  5
22
330
21
100
AcDbEntity
  8
0
100
AcDbBlockBegin
  2
*Model_Space
 70
     0
 10
0.0
 20
0.0
 30
0.0
  3
*Model_Space
  1

  0
ENDBLK
  5
23
330
21
100
AcDbEntity
  8
0
100
AcDbBlockEnd
  0
BLOCK
  5
1E
330
1D
100
AcDbEntity
 67
     1
  8
0
100
AcDbBlockBegin
  2
*Paper_Space
 70
     0
 10
0.0
 20
0.0
 30
0.0
  3
*Paper_Space
  1

  0
ENDBLK
  5
1F
330
1D
100
AcDbEntity
 67
     1
  8
0
100
AcDbBlockEnd
  0
BLOCK
  5
26
330
25
100
AcDbEntity
  8
0
100
AcDbBlockBegin
  2
*Paper_Space0
 70
     0
 10
0.0
 20
0.0
 30
0.0
  3
*Paper_Space0
  1

  0
ENDBLK
  5
27
330
25
100
AcDbEntity
  8
0
100
AcDbBlockEnd
  0
BLOCK
  5
5A5
330
59A
100
AcDbEntity
  8
0
100
AcDbBlockBegin
  2
*D38
 70
     1
 10
0.0
 20
0.0
 30
0.0
  3
*D38
  1

  0
LINE
  5
6EF
330
59A
100
AcDbEntity
  8
标注
370
    -2
100
AcDbLine
 10
202.9990531621331
 20
210.5128721613448
 30
0.0
 11
193.7220299555844
 21
210.5128721613448
 31
0.0
  0
LINE
  5
6F0
330
59A
100
AcDbEntity
  8
标注
370
    -2
100
AcDbLine
 10
202.9990531621331
 20
189.7727146810271
 30
0.0
 11
193.7220299555844
 21
189.7727146810271
 31
0.0
  0
LINE
  5
6F1
330
59A
100
AcDbEntity
  8
标注
370
    -2
100
AcDbLine
 10
194.0420299555844
 20
209.8628721613448
 30
0.0
 11
194.0420299555844
 21
202.3469600878526
 31
0.0
  0
LINE
  5
6F2
330
59A
100
AcDbEntity
  8
标注
370
    -2
100
AcDbLine
 10
194.0420299555844
 20
190.4227146810271
 30
0.0
 11
194.0420299555844
 21
197.9386267545192
 31
0.0
  0
SOLID
  5
6F3
330
59A
100
AcDbEntity
  8
标注
100
AcDbTrace
 10
193.9336966222511
 20
209.8628721613448
 30
0.0
 11
194.1503632889178
 21
209.8628721613448
 31
0.0
 12
194.0420299555844
 22
210.5128721613448
 32
0.0
 13
194.0420299555844
 23
210.5128721613448
 33
0.0
  0
SOLID
  5
6F4
330
59A
100
AcDbEntity
  8
标注
100
AcDbTrace
 10
193.9336966222511
 20
190.4227146810271
 30
0.0
 11
194.1503632889177
 21
190.4227146810271
 31
0.0
 12
194.0420299555844
 22
189.7727146810271
 32
0.0
 13
194.0420299555844
 23
189.7727146810271
 33
0.0
  0
MTEXT
  5
6F5
330
59A
100
AcDbEntity
  8
标注
100
AcDbMText
 10
194.0420299555844
 20
200.142793421186
 30
0.0
 40
0.65
 41
0.0
 71
     5
 72
     1
  1
\A1;20 3/4"
 11
0.0000000000000001
 21
1.0
 31
0.0
 73
     1
 44
1.0
  0
POINT
  5
6F6
330
59A
100
AcDbEntity
  8
Defpoints
 62
     0
100
AcDbPoint
 10
203.8790531621331
 20
210.5128721613448
 30
0.0
  0
POINT
  5
6F7
330
59A
100
AcDbEntity
  8
Defpoints
 62
     0
100
AcDbPoint
 10
203.8790531621331
 20
189.7727146810271
 30
0.0
  0
POINT
  5
6F8
330
59A
100
AcDbEntity
  8
Defpoints
 62
     0
100
AcDbPoint
 10
194.0420299555844
 20
189.7727146810271
 30
0.0
  0
ENDBLK
  5
5A6
330
59A
100
AcDbEntity
  8
0
100
AcDbBlockEnd
  0
BLOCK
  5
5B3
330
5A7
100
AcDbEntity
  8
0
100
AcDbBlockBegin
  2
*D39
 70
     1
 10
0.0
 20
0.0
 30
0.0
  3
*D39
  1

  0
LINE
  5
692
330
5A7
100
AcDbEntity
  8
标注
370
    -2
100
AcDbLine
 10
206.0560610361954
 20
209.5128721613449
 30
0.0
 11
196.1599907917767
 21
209.5128721613449
 31
0.0
  0
LINE
  5
693
330
5A7
100
AcDbEntity
  8
标注
370
    -2
100
AcDbLine
 10
202.9990531621331
 20
210.5128721613448
 30
0.0
 11
196.1599907917767
 21
210.5128721613448
 31
0.0
  0
LINE
  5
694
330
5A7
100
AcDbEntity
  8
标注
370
    -2
100
AcDbLine
 10
196.4799907917767
 20
208.8628721613449
 30
0.0
 11
196.4799907917767
 21
208.2128721613449
 31
0.0
  0
LINE
  5
695
330
5A7
100
AcDbEntity
  8
标注
370
    -2
100
AcDbLine
 10
196.4799907917767
 20
211.1628721613448
 30
0.0
 11
196.4799907917767
 21
211.8128721613448
 31
0.0
  0
LINE
  5
696
330
5A7
100
AcDbEntity
  8
标注
370
    -2
100
AcDbLine
 10
196.4799907917767
 20
209.5128721613449
 30
0.0
 11
196.4799907917767
 21
210.5128721613448
 31
0.0
  0
SOLID
  5
697
330
5A7
100
AcDbEntity
  8
标注
100
AcDbTrace
 10
196.3716574584434
 20
208.8628721613449
 30
0.0
 11
196.5883241251101
 21
208.8628721613449
 31
0.0
 12
196.4799907917767
 22
209.5128721613449
 32
0.0
 13
196.4799907917767
 23
209.5128721613449
 33
0.0
  0
SOLID
  5
698
330
5A7
100
AcDbEntity
  8
标注
100
AcDbTrace
 10
196.3716574584434
 20
211.1628721613448
 30
0.0
 11
196.5883241251101
 21
211.1628721613448
 31
0.0
 12
196.4799907917767
 22
210.5128721613448
 32
0.0
 13
196.4799907917767
 23
210.5128721613448
 33
0.0
  0
MTEXT
  5
699
330
5A7
100
AcDbEntity
  8
标注
100
AcDbMText
 10
196.4799907917767
 20
212.3378721613448
 30
0.0
 40
0.65
 41
0.0
 71
     5
 72
     1
  1
\A1;1"
 11
0.0000000000000001
 21
1.0
 31
0.0
 73
     1
 44
1.0
  0
POINT
  5
69A
330
5A7
100
AcDbEntity
  8
Defpoints
 62
     0
100
AcDbPoint
 10
206.9360610361954
 20
209.5128721613449
 30
0.0
  0
POINT
  5
69B
330
5A7
100
AcDbEntity
  8
Defpoints
 62
     0
100
AcDbPoint
 10
203.8790531621331
 20
210.5128721613448
 30
0.0
  0
POINT
  5
69C
330
5A7
100
AcDbEntity
  8
Defpoints
 62
     0
100
AcDbPoint
 10
196.4799907917767
 20
210.5128721613448
 30
0.0
  0
ENDBLK
  5
5B4
330
5A7
100
AcDbEntity
  8
0
100
AcDbBlockEnd
  0
BLOCK
  5
5C1
330
5B5
100
AcDbEntity
  8
0
100
AcDbBlockBegin
  2
*D40
 70
     1
 10
0.0
 20
0.0
 30
0.0
  3
*D40
  1

  0
LINE
  5
6A8
330
5B5
100
AcDbEntity
  8
标注
370
    -2
100
AcDbLine
 10
199.9420452881172
 20
199.2627934211875
 30
0.0
 11
199.9420452881172
 21
187.098589322541
 31
0.0
  0
LINE
  5
6A9
330
5B5
100
AcDbEntity
  8
标注
370
    -2
100
AcDbLine
 10
198.9420452881173
 20
193.8297225550427
 30
0.0
 11
198.9420452881173
 21
187.098589322541
 31
0.0
  0
LINE
  5
6AA
330
5B5
100
AcDbEntity
  8
标注
370
    -2
100
AcDbLine
 10
200.5920452881172
 20
187.418589322541
 30
0.0
 11
201.2420452881172
 21
187.418589322541
 31
0.0
  0
LINE
  5
6AB
330
5B5
100
AcDbEntity
  8
标注
370
    -2
100
AcDbLine
 10
198.2920452881172
 20
187.418589322541
 30
0.0
 11
197.6420452881173
 21
187.418589322541
 31
0.0
  0
LINE
  5
6AC
330
5B5
100
AcDbEntity
  8
标注
370
    -2
100
AcDbLine
 10
199.9420452881172
 20
187.418589322541
 30
0.0
 11
198.9420452881173
 21
187.418589322541
 31
0.0
  0
SOLID
  5
6AD
330
5B5
100
AcDbEntity
  8
标注
100
AcDbTrace
 10
200.5920452881172
 20
187.5269226558743
 30
0.0
 11
200.5920452881172
 21
187.3102559892076
 31
0.0
 12
199.9420452881172
 22
187.418589322541
 32
0.0
 13
199.9420452881172
 23
187.418589322541
 33
0.0
  0
SOLID
  5
6AE
330
5B5
100
AcDbEntity
  8
标注
100
AcDbTrace
 10
198.2920452881172
 20
187.5269226558743
 30
0.0
 11
198.2920452881172
 21
187.3102559892076
 31
0.0
 12
198.9420452881173
 22
187.418589322541
 32
0.0
 13
198.9420452881173
 23
187.418589322541
 33
0.0
  0
MTEXT
  5
6AF
330
5B5
100
AcDbEntity
  8
标注
100
AcDbMText
 10
197.1170452881173
 20
187.418589322541
 30
0.0
 40
0.65
 41
0.0
 71
     5
 72
     1
  1
\A1;1"
 73
     1
 44
1.0
  0
POINT
  5
6B0
330
5B5
100
AcDbEntity
  8
Defpoints
 62
     0
100
AcDbPoint
 10
199.9420452881172
 20
200.1427934211875
 30
0.0
  0
POINT
  5
6B1
330
5B5
100
AcDbEntity
  8
Defpoints
 62
     0
100
AcDbPoint
 10
198.9420452881173
 20
194.7097225550427
 30
0.0
  0
POINT
  5
6B2
330
5B5
100
AcDbEntity
  8
Defpoints
 62
     0
100
AcDbPoint
 10
198.9420452881173
 20
187.418589322541
 30
0.0
  0
ENDBLK
  5
5C2
330
5B5
100
AcDbEntity
  8
0
100
AcDbBlockEnd
  0
BLOCK
  5
5CE
330
5C3
100
AcDbEntity
  8
0
100
AcDbBlockBegin
  2
*D41
 70
     1
 10
0.0
 20
0.0
 30
0.0
  3
*D41
  1

  0
LINE
  5
5C4
330
5C3
100
AcDbEntity
  8
标注
370
    -2
100
AcDbLine
 10
203.0070067301248
 20
220.1817819961139
 30
0.0
 11
194.3504395567531
 21
220.1817819961139
 31
0.0
  0
LINE
  5
5C5
330
5C3
100
AcDbEntity
  8
标注
370
    -2
100
AcDbLine
 10
196.2672267399818
 20
230.1975300276099
 30
0.0
 11
194.3504395567531
 21
230.1975300276099
 31
0.0
  0
LINE
  5
5C6
330
5C3
100
AcDbEntity
  8
标注
370
    -2
100
AcDbLine
 10
194.6704395567531
 20
220.8317819961139
 30
0.0
 11
194.6704395567531
 21
224.3938226785286
 31
0.0
  0
LINE
  5
5C7
330
5C3
100
AcDbEntity
  8
标注
370
    -2
100
AcDbLine
 10
194.6704395567531
 20
229.5475300276099
 30
0.0
 11
194.6704395567531
 21
225.9854893451952
 31
0.0
  0
SOLID
  5
5C8
330
5C3
100
AcDbEntity
  8
标注
100
AcDbTrace
 10
194.5621062234197
 20
220.8317819961139
 30
0.0
 11
194.7787728900864
 21
220.8317819961139
 31
0.0
 12
194.6704395567531
 22
220.1817819961139
 32
0.0
 13
194.6704395567531
 23
220.1817819961139
 33
0.0
  0
SOLID
  5
5C9
330
5C3
100
AcDbEntity
  8
标注
100
AcDbTrace
 10
194.5621062234197
 20
229.5475300276099
 30
0.0
 11
194.7787728900864
 21
229.5475300276099
 31
0.0
 12
194.6704395567531
 22
230.1975300276099
 32
0.0
 13
194.6704395567531
 23
230.1975300276099
 33
0.0
  0
MTEXT
  5
5CA
330
5C3
100
AcDbEntity
  8
标注
100
AcDbMText
 10
194.670439556753
 20
225.1896560118619
 30
0.0
 40
0.65
 41
0.0
 71
     5
 72
     1
  1
\A1;10"
 11
0.0000000000000001
 21
1.0
 31
0.0
 73
     1
 44
1.0
  0
POINT
  5
5CB
330
5C3
100
AcDbEntity
  8
Defpoints
 62
     0
100
AcDbPoint
 10
203.8870067301248
 20
220.1817819961139
 30
0.0
  0
POINT
  5
5CC
330
5C3
100
AcDbEntity
  8
Defpoints
 62
     0
100
AcDbPoint
 10
197.1472267399818
 20
230.1975300276099
 30
0.0
  0
POINT
  5
5CD
330
5C3
100
AcDbEntity
  8
Defpoints
 62
     0
100
AcDbPoint
 10
194.6704395567531
 20
230.1975300276099
 30
0.0
  0
ENDBLK
  5
5CF
330
5C3
100
AcDbEntity
  8
0
100
AcDbBlockEnd
  0
BLOCK
  5
5D6
330
5D0
100
AcDbEntity
  8
0
100
AcDbBlockBegin
  2
*D42
 70
     1
 10
0.0
 20
0.0
 30
0.0
  3
*D42
  1

  0
LINE
  5
5D1
330
5D0
100
AcDbEntity
  8
标注
370
    -2
100
AcDbLine
 10
200.0446062196895
 20
222.038461727769
 30
0.0
 11
199.4959662198399
 21
221.6899016173645
 31
0.0
  0
MTEXT
  5
5D2
330
5D0
100
AcDbEntity
  8
标注
100
AcDbMText
 10
200.8534985271599
 20
222.5523644546473
 30
0.0
 40
0.65
 41
0.0
 71
     5
 72
     1
  1
\A1;R2"
 11
0.8440615382299974
 21
0.53624632369911
 31
0.0
 73
     1
 44
1.0
  0
SOLID
  5
5D3
330
5D0
100
AcDbEntity
  8
标注
100
AcDbTrace
 10
199.4378728681058
 20
221.7813416173394
 30
0.0
 11
199.554059571574
 21
221.5984616173896
 31
0.0
 12
198.9473262199904
 22
221.3413415069601
 32
0.0
 13
198.9473262199904
 23
221.3413415069601
 33
0.0
  0
POINT
  5
5D4
330
5D0
100
AcDbEntity
  8
Defpoints
 62
     0
100
AcDbPoint
 10
198.9473262199904
 20
221.3413415069601
 30
0.0
  0
POINT
  5
5D5
330
5D0
100
AcDbEntity
  8
Defpoints
 62
     0
100
AcDbPoint
 10
200.6354492964505
 20
222.4138341543584
 30
0.0
  0
ENDBLK
  5
5D7
330
5D0
100
AcDbEntity
  8
0
100
AcDbBlockEnd
  0
BLOCK
  5
5E3
330
5D8
100
AcDbEntity
  8
0
100
AcDbBlockBegin
  2
*D43
 70
     1
 10
0.0
 20
0.0
 30
0.0
  3
*D43
  1

  0
LINE
  5
6DB
330
5D8
100
AcDbEntity
  8
标注
370
    -2
100
AcDbLine
 10
227.2866122172511
 20
208.3081477519077
 30
0.0
 11
236.3431978353523
 21
208.3081477519077
 31
0.0
  0
LINE
  5
6DC
330
5D8
100
AcDbEntity
  8
标注
370
    -2
100
AcDbLine
 10
227.2866122172511
 20
189.7727146810437
 30
0.0
 11
236.3431978353522
 21
189.7727146810437
 31
0.0
  0
LINE
  5
6DD
330
5D8
100
AcDbEntity
  8
标注
370
    -2
100
AcDbLine
 10
236.0231978353523
 20
207.6581477519077
 30
0.0
 11
236.0231978353523
 21
201.0820978831424
 31
0.0
  0
LINE
  5
6DE
330
5D8
100
AcDbEntity
  8
标注
370
    -2
100
AcDbLine
 10
236.0231978353522
 20
190.4227146810437
 30
0.0
 11
236.0231978353523
 21
196.998764549809
 31
0.0
  0
SOLID
  5
6DF
330
5D8
100
AcDbEntity
  8
标注
100
AcDbTrace
 10
235.9148645020189
 20
207.6581477519077
 30
0.0
 11
236.1315311686856
 21
207.6581477519077
 31
0.0
 12
236.0231978353523
 22
208.3081477519077
 32
0.0
 13
236.0231978353523
 23
208.3081477519077
 33
0.0
  0
SOLID
  5
6E0
330
5D8
100
AcDbEntity
  8
标注
100
AcDbTrace
 10
235.9148645020189
 20
190.4227146810437
 30
0.0
 11
236.1315311686856
 21
190.4227146810437
 31
0.0
 12
236.0231978353522
 22
189.7727146810437
 32
0.0
 13
236.0231978353522
 23
189.7727146810437
 33
0.0
  0
MTEXT
  5
6E1
330
5D8
100
AcDbEntity
  8
标注
100
AcDbMText
 10
236.0231978353522
 20
199.0404312164757
 30
0.0
 40
0.65
 41
0.0
 71
     5
 72
     1
  1
\A1;18 1/2"
 11
0.0000000000000001
 21
1.0
 31
0.0
 73
     1
 44
1.0
  0
POINT
  5
6E2
330
5D8
100
AcDbEntity
  8
Defpoints
 62
     0
100
AcDbPoint
 10
226.4066122172511
 20
208.3081477519077
 30
0.0
  0
POINT
  5
6E3
330
5D8
100
AcDbEntity
  8
Defpoints
 62
     0
100
AcDbPoint
 10
226.4066122172511
 20
189.7727146810437
 30
0.0
  0
POINT
  5
6E4
330
5D8
100
AcDbEntity
  8
Defpoints
 62
     0
100
AcDbPoint
 10
236.0231978353522
 20
189.7727146810437
 30
0.0
  0
ENDBLK
  5
5E4
330
5D8
100
AcDbEntity
  8
0
100
AcDbBlockEnd
  0
BLOCK
  5
5F0
330
5E5
100
AcDbEntity
  8
0
100
AcDbBlockBegin
  2
*D44
 70
     1
 10
0.0
 20
0.0
 30
0.0
  3
*D44
  1

  0
LINE
  5
722
330
5E5
100
AcDbEntity
  8
标注
370
    -2
100
AcDbLine
 10
224.3338563117393
 20
207.3081477519076
 30
0.0
 11
234.0020369199558
 21
207.3081477519076
 31
0.0
  0
LINE
  5
723
330
5E5
100
AcDbEntity
  8
标注
370
    -2
100
AcDbLine
 10
224.3338563117393
 20
190.7727146810413
 30
0.0
 11
234.0020369199558
 21
190.7727146810413
 31
0.0
  0
LINE
  5
724
330
5E5
100
AcDbEntity
  8
标注
370
    -2
100
AcDbLine
 10
233.6820369199559
 20
206.6581477519076
 30
0.0
 11
233.6820369199559
 21
201.0820978831411
 31
0.0
  0
LINE
  5
725
330
5E5
100
AcDbEntity
  8
标注
370
    -2
100
AcDbLine
 10
233.6820369199558
 20
191.4227146810413
 30
0.0
 11
233.6820369199559
 21
196.9987645498078
 31
0.0
  0
SOLID
  5
726
330
5E5
100
AcDbEntity
  8
标注
100
AcDbTrace
 10
233.5737035866225
 20
206.6581477519076
 30
0.0
 11
233.7903702532892
 21
206.6581477519076
 31
0.0
 12
233.6820369199559
 22
207.3081477519076
 32
0.0
 13
233.6820369199559
 23
207.3081477519076
 33
0.0
  0
SOLID
  5
727
330
5E5
100
AcDbEntity
  8
标注
100
AcDbTrace
 10
233.5737035866225
 20
191.4227146810413
 30
0.0
 11
233.7903702532892
 21
191.4227146810413
 31
0.0
 12
233.6820369199558
 22
190.7727146810413
 32
0.0
 13
233.6820369199558
 23
190.7727146810413
 33
0.0
  0
MTEXT
  5
728
330
5E5
100
AcDbEntity
  8
标注
100
AcDbMText
 10
233.6820369199558
 20
199.0404312164745
 30
0.0
 40
0.65
 41
0.0
 71
     5
 72
     1
  1
\A1;16 1/2"
 11
0.0000000000000001
 21
1.0
 31
0.0
 73
     1
 44
1.0
  0
POINT
  5
729
330
5E5
100
AcDbEntity
  8
Defpoints
 62
     0
100
AcDbPoint
 10
223.4538563117393
 20
207.3081477519076
 30
0.0
  0
POINT
  5
72A
330
5E5
100
AcDbEntity
  8
Defpoints
 62
     0
100
AcDbPoint
 10
223.4538563117393
 20
190.7727146810413
 30
0.0
  0
POINT
  5
72B
330
5E5
100
AcDbEntity
  8
Defpoints
 62
     0
100
AcDbPoint
 10
233.6820369199558
 20
190.7727146810413
 30
0.0
  0
ENDBLK
  5
5F1
330
5E5
100
AcDbEntity
  8
0
100
AcDbBlockEnd
  0
BLOCK
  5
607
330
5FC
100
AcDbEntity
  8
0
100
AcDbBlockBegin
  2
*D45
 70
     1
 10
0.0
 20
0.0
 30
0.0
  3
*D45
  1

  0
LINE
  5
72C
330
5FC
100
AcDbEntity
  8
标注
370
    -2
100
AcDbLine
 10
206.9360610361954
 20
209.5128721613449
 30
0.0
 11
196.1599907917768
 21
209.5128721613449
 31
0.0
  0
LINE
  5
72D
330
5FC
100
AcDbEntity
  8
标注
370
    -2
100
AcDbLine
 10
206.9360610362225
 20
190.7727146810299
 30
0.0
 11
196.1599907917768
 21
190.7727146810299
 31
0.0
  0
LINE
  5
72E
330
5FC
100
AcDbEntity
  8
标注
370
    -2
100
AcDbLine
 10
196.4799907917768
 20
208.8628721613449
 30
0.0
 11
196.4799907917768
 21
202.2927934211875
 31
0.0
  0
LINE
  5
72F
330
5FC
100
AcDbEntity
  8
标注
370
    -2
100
AcDbLine
 10
196.4799907917768
 20
191.4227146810299
 30
0.0
 11
196.4799907917768
 21
197.9927934211874
 31
0.0
  0
SOLID
  5
730
330
5FC
100
AcDbEntity
  8
标注
100
AcDbTrace
 10
196.3716574584435
 20
208.8628721613449
 30
0.0
 11
196.5883241251102
 21
208.8628721613449
 31
0.0
 12
196.4799907917768
 22
209.5128721613449
 32
0.0
 13
196.4799907917768
 23
209.5128721613449
 33
0.0
  0
SOLID
  5
731
330
5FC
100
AcDbEntity
  8
标注
100
AcDbTrace
 10
196.3716574584435
 20
191.4227146810299
 30
0.0
 11
196.5883241251101
 21
191.4227146810299
 31
0.0
 12
196.4799907917768
 22
190.7727146810299
 32
0.0
 13
196.4799907917768
 23
190.7727146810299
 33
0.0
  0
MTEXT
  5
732
330
5FC
100
AcDbEntity
  8
标注
100
AcDbMText
 10
196.4799907917768
 20
200.1427934211875
 30
0.0
 40
0.65
 41
0.0
 71
     5
 72
     1
  1
\A1;18 3/4"
 11
0.0000000000000001
 21
1.0
 31
0.0
 73
     1
 44
1.0
  0
POINT
  5
733
330
5FC
100
AcDbEntity
  8
Defpoints
 62
     0
100
AcDbPoint
 10
207.8160610361954
 20
209.5128721613449
 30
0.0
  0
POINT
  5
734
330
5FC
100
AcDbEntity
  8
Defpoints
 62
     0
100
AcDbPoint
 10
207.8160610362225
 20
190.7727146810299
 30
0.0
  0
POINT
  5
735
330
5FC
100
AcDbEntity
  8
Defpoints
 62
     0
100
AcDbPoint
 10
196.4799907917768
 20
190.7727146810299
 30
0.0
  0
ENDBLK
  5
608
330
5FC
100
AcDbEntity
  8
0
100
AcDbBlockEnd
  0
BLOCK
  5
614
330
609
100
AcDbEntity
  8
0
100
AcDbBlockBegin
  2
*D46
 70
     1
 10
0.0
 20
0.0
 30
0.0
  3
*D46
  1

  0
LINE
  5
60A
330
609
100
AcDbEntity
  8
标注
370
    -2
100
AcDbLine
 10
230.0351007557297
 20
230.1975300276099
 30
0.0
 11
232.1670028484299
 21
230.1975300276099
 31
0.0
  0
LINE
  5
60B
330
609
100
AcDbEntity
  8
标注
370
    -2
100
AcDbLine
 10
224.7670067301261
 20
222.2290260906021
 30
0.0
 11
232.1670028484299
 21
222.2290260906021
 31
0.0
  0
LINE
  5
60C
330
609
100
AcDbEntity
  8
标注
370
    -2
100
AcDbLine
 10
231.8470028484298
 20
229.5475300276099
 30
0.0
 11
231.8470028484298
 21
226.8466113924393
 31
0.0
  0
LINE
  5
60D
330
609
100
AcDbEntity
  8
标注
370
    -2
100
AcDbLine
 10
231.8470028484298
 20
222.8790260906021
 30
0.0
 11
231.8470028484298
 21
225.5799447257726
 31
0.0
  0
SOLID
  5
60E
330
609
100
AcDbEntity
  8
标注
100
AcDbTrace
 10
231.7386695150966
 20
229.5475300276099
 30
0.0
 11
231.9553361817632
 21
229.5475300276099
 31
0.0
 12
231.8470028484298
 22
230.1975300276099
 32
0.0
 13
231.8470028484298
 23
230.1975300276099
 33
0.0
  0
SOLID
  5
60F
330
609
100
AcDbEntity
  8
标注
100
AcDbTrace
 10
231.7386695150966
 20
222.8790260906021
 30
0.0
 11
231.9553361817632
 21
222.8790260906021
 31
0.0
 12
231.8470028484298
 22
222.2290260906021
 32
0.0
 13
231.8470028484298
 23
222.2290260906021
 33
0.0
  0
MTEXT
  5
610
330
609
100
AcDbEntity
  8
标注
100
AcDbMText
 10
231.8470028484298
 20
226.213278059106
 30
0.0
 40
0.65
 41
0.0
 71
     5
 72
     1
  1
\A1;8"
 11
0.0000000000000001
 21
1.0
 31
0.0
 73
     1
 44
1.0
  0
POINT
  5
611
330
609
100
AcDbEntity
  8
Defpoints
 62
     0
100
AcDbPoint
 10
229.1551007557298
 20
230.1975300276099
 30
0.0
  0
POINT
  5
612
330
609
100
AcDbEntity
  8
Defpoints
 62
     0
100
AcDbPoint
 10
223.8870067301261
 20
222.2290260906021
 30
0.0
  0
POINT
  5
613
330
609
100
AcDbEntity
  8
Defpoints
 62
     0
100
AcDbPoint
 10
231.8470028484298
 20
222.2290260906021
 30
0.0
  0
ENDBLK
  5
615
330
609
100
AcDbEntity
  8
0
100
AcDbBlockEnd
  0
BLOCK
  5
622
330
616
100
AcDbEntity
  8
0
100
AcDbBlockBegin
  2
*D47
 70
     1
 10
0.0
 20
0.0
 30
0.0
  3
*D47
  1

  0
LINE
  5
687
330
616
100
AcDbEntity
  8
标注
370
    -2
100
AcDbLine
 10
225.2138563117393
 20
190.7727146810413
 30
0.0
 11
234.0020369199558
 21
190.7727146810413
 31
0.0
  0
LINE
  5
688
330
616
100
AcDbEntity
  8
标注
370
    -2
100
AcDbLine
 10
227.2866122172545
 20
189.7727146810437
 30
0.0
 11
234.0020369199558
 21
189.7727146810437
 31
0.0
  0
LINE
  5
689
330
616
100
AcDbEntity
  8
标注
370
    -2
100
AcDbLine
 10
233.6820369199558
 20
191.4227146810414
 30
0.0
 11
233.6820369199558
 21
192.0727146810414
 31
0.0
  0
LINE
  5
68A
330
616
100
AcDbEntity
  8
标注
370
    -2
100
AcDbLine
 10
233.6820369199558
 20
189.1227146810437
 30
0.0
 11
233.6820369199558
 21
188.4727146810437
 31
0.0
  0
LINE
  5
68B
330
616
100
AcDbEntity
  8
标注
370
    -2
100
AcDbLine
 10
233.6820369199558
 20
190.7727146810413
 30
0.0
 11
233.6820369199558
 21
189.7727146810437
 31
0.0
  0
SOLID
  5
68C
330
616
100
AcDbEntity
  8
标注
100
AcDbTrace
 10
233.5737035866225
 20
191.4227146810414
 30
0.0
 11
233.7903702532891
 21
191.4227146810414
 31
0.0
 12
233.6820369199558
 22
190.7727146810413
 32
0.0
 13
233.6820369199558
 23
190.7727146810413
 33
0.0
  0
SOLID
  5
68D
330
616
100
AcDbEntity
  8
标注
100
AcDbTrace
 10
233.5737035866225
 20
189.1227146810437
 30
0.0
 11
233.7903702532891
 21
189.1227146810437
 31
0.0
 12
233.6820369199558
 22
189.7727146810437
 32
0.0
 13
233.6820369199558
 23
189.7727146810437
 33
0.0
  0
MTEXT
  5
68E
330
616
100
AcDbEntity
  8
标注
100
AcDbMText
 10
233.6820369199558
 20
187.9477146810437
 30
0.0
 40
0.65
 41
0.0
 71
     5
 72
     1
  1
\A1;1"
 11
0.0000000000000001
 21
1.0
 31
0.0
 73
     1
 44
1.0
  0
POINT
  5
68F
330
616
100
AcDbEntity
  8
Defpoints
 62
     0
100
AcDbPoint
 10
224.3338563117393
 20
190.7727146810413
 30
0.0
  0
POINT
  5
690
330
616
100
AcDbEntity
  8
Defpoints
 62
     0
100
AcDbPoint
 10
226.4066122172545
 20
189.7727146810437
 30
0.0
  0
POINT
  5
691
330
616
100
AcDbEntity
  8
Defpoints
 62
     0
100
AcDbPoint
 10
233.6820369199558
 20
189.7727146810437
 30
0.0
  0
ENDBLK
  5
623
330
616
100
AcDbEntity
  8
0
100
AcDbBlockEnd
  0
BLOCK
  5
63B
330
62F
100
AcDbEntity
  8
0
100
AcDbBlockBegin
  2
*D48
 70
     1
 10
0.0
 20
0.0
 30
0.0
  3
*D48
  1

  0
LINE
  5
703
330
62F
100
AcDbEntity
  8
标注
370
    -2
100
AcDbLine
 10
216.9577933196132
 20
199.9204312164755
 30
0.0
 11
216.9577933196132
 21
199.5827934211874
 31
0.0
  0
LINE
  5
704
330
62F
100
AcDbEntity
  8
标注
370
    -2
100
AcDbLine
 10
215.6900767841802
 20
199.9204312164755
 30
0.0
 11
215.6900767841802
 21
199.5827934211874
 31
0.0
  0
LINE
  5
705
330
62F
100
AcDbEntity
  8
标注
370
    -2
100
AcDbLine
 10
217.6077933196132
 20
199.2627934211874
 30
0.0
 11
218.2577933196132
 21
199.2627934211874
 31
0.0
  0
LINE
  5
706
330
62F
100
AcDbEntity
  8
标注
370
    -2
100
AcDbLine
 10
215.0400767841802
 20
199.2627934211874
 30
0.0
 11
214.3900767841802
 21
199.2627934211874
 31
0.0
  0
LINE
  5
707
330
62F
100
AcDbEntity
  8
标注
370
    -2
100
AcDbLine
 10
216.9577933196132
 20
199.2627934211874
 30
0.0
 11
215.6900767841802
 21
199.2627934211874
 31
0.0
  0
SOLID
  5
708
330
62F
100
AcDbEntity
  8
标注
100
AcDbTrace
 10
217.6077933196132
 20
199.3711267545207
 30
0.0
 11
217.6077933196132
 21
199.1544600878541
 31
0.0
 12
216.9577933196132
 22
199.2627934211874
 32
0.0
 13
216.9577933196132
 23
199.2627934211874
 33
0.0
  0
SOLID
  5
709
330
62F
100
AcDbEntity
  8
标注
100
AcDbTrace
 10
215.0400767841802
 20
199.3711267545207
 30
0.0
 11
215.0400767841802
 21
199.1544600878541
 31
0.0
 12
215.6900767841802
 22
199.2627934211874
 32
0.0
 13
215.6900767841802
 23
199.2627934211874
 33
0.0
  0
MTEXT
  5
70A
330
62F
100
AcDbEntity
  8
标注
100
AcDbMText
 10
212.6734101175135
 20
199.2627934211874
 30
0.0
 40
0.65
 41
0.0
 71
     5
 72
     1
  1
\A1;1 1/4"
 73
     1
 44
1.0
  0
POINT
  5
70B
330
62F
100
AcDbEntity
  8
Defpoints
 62
     0
100
AcDbPoint
 10
216.9577933196132
 20
199.0404312164755
 30
0.0
  0
POINT
  5
70C
330
62F
100
AcDbEntity
  8
Defpoints
 62
     0
100
AcDbPoint
 10
215.6900767841802
 20
199.0404312164755
 30
0.0
  0
POINT
  5
70D
330
62F
100
AcDbEntity
  8
Defpoints
 62
     0
100
AcDbPoint
 10
215.6900767841802
 20
199.2627934211874
 30
0.0
  0
ENDBLK
  5
63C
330
62F
100
AcDbEntity
  8
0
100
AcDbBlockEnd
  0
BLOCK
  5
64E
330
648
100
AcDbEntity
  8
0
100
AcDbBlockBegin
  2
*D49
 70
     1
 10
0.0
 20
0.0
 30
0.0
  3
*D49
  1

  0
LINE
  5
70E
330
648
100
AcDbEntity
  8
标注
370
    -2
100
AcDbLine
 10
227.9048223557279
 20
193.0095116021615
 30
0.0
 11
228.4031702671254
 21
192.5921995376272
 31
0.0
  0
MTEXT
  5
70F
330
648
100
AcDbEntity
  8
标注
100
AcDbMText
 10
226.2564408026443
 20
194.3898515079288
 30
0.0
 40
0.65
 41
0.0
 71
     5
 72
     1
  1
\A1;R3 1/2"
 11
0.766689094457507
 21
-0.6420185608219813
 31
0.0
 73
     1
 44
1.0
  0
SOLID
  5
710
330
648
100
AcDbEntity
  8
标注
100
AcDbTrace
 10
228.4727222778812
 20
192.6752575228601
 30
0.0
 11
228.3336182563697
 21
192.5091415523943
 31
0.0
 12
228.9015181785228
 22
192.1748874730929
 32
0.0
 13
228.9015181785228
 23
192.1748874730929
 33
0.0
  0
POINT
  5
711
330
648
100
AcDbEntity
  8
Defpoints
 62
     0
100
AcDbPoint
 10
228.9015181785228
 20
192.1748874730929
 30
0.0
  0
POINT
  5
712
330
648
100
AcDbEntity
  8
Defpoints
 62
     0
100
AcDbPoint
 10
226.1849032769017
 20
194.4497563893912
 30
0.0
  0
ENDBLK
  5
64F
330
648
100
AcDbEntity
  8
0
100
AcDbBlockEnd
  0
BLOCK
  5
656
330
650
100
AcDbEntity
  8
0
100
AcDbBlockBegin
  2
*D50
 70
     1
 10
0.0
 20
0.0
 30
0.0
  3
*D50
  1

  0
LINE
  5
713
330
650
100
AcDbEntity
  8
标注
370
    -2
100
AcDbLine
 10
213.5636893071532
 20
193.1615283372782
 30
0.0
 11
214.0615206190872
 21
192.7436001318911
 31
0.0
  0
MTEXT
  5
714
330
650
100
AcDbEntity
  8
标注
100
AcDbMText
 10
211.8340446208183
 20
194.6135609483025
 30
0.0
 40
0.65
 41
0.0
 71
     5
 72
     1
  1
\A1;R3 7/8"
 11
0.7658943260523477
 21
-0.6429664698262424
 31
0.0
 73
     1
 44
1.0
  0
SOLID
  5
715
330
650
100
AcDbEntity
  8
标注
100
AcDbTrace
 10
214.131175319985
 20
192.8265720172134
 30
0.0
 11
213.9918659181894
 21
192.6606282465688
 31
0.0
 12
214.5593519310212
 22
192.325671926504
 32
0.0
 13
214.5593519310212
 23
192.325671926504
 33
0.0
  0
POINT
  5
716
330
650
100
AcDbEntity
  8
Defpoints
 62
     0
100
AcDbPoint
 10
214.5593519310212
 20
192.325671926504
 30
0.0
  0
POINT
  5
717
330
650
100
AcDbEntity
  8
Defpoints
 62
     0
100
AcDbPoint
 10
211.5440199386891
 20
194.8570359809381
 30
0.0
  0
ENDBLK
  5
657
330
650
100
AcDbEntity
  8
0
100
AcDbBlockEnd
  0
BLOCK
  5
663
330
658
100
AcDbEntity
  8
0
100
AcDbBlockBegin
  2
*D51
 70
     1
 10
0.0
 20
0.0
 30
0.0
  3
*D51
  1

  0
LINE
  5
6BD
330
658
100
AcDbEntity
  8
标注
370
    -2
100
AcDbLine
 10
198.9420452881173
 20
193.8297225550427
 30
0.0
 11
198.9420452881173
 21
184.8511816833899
 31
0.0
  0
LINE
  5
6BE
330
658
100
AcDbEntity
  8
标注
370
    -2
100
AcDbLine
 10
230.9499193038652
 20
193.4360217676578
 30
0.0
 11
230.9499193038652
 21
184.8511816833899
 31
0.0
  0
LINE
  5
6BF
330
658
100
AcDbEntity
  8
标注
370
    -2
100
AcDbLine
 10
199.5920452881172
 20
185.1711816833899
 30
0.0
 11
213.9876489626579
 21
185.1711816833899
 31
0.0
  0
LINE
  5
6C0
330
658
100
AcDbEntity
  8
标注
370
    -2
100
AcDbLine
 10
230.2999193038652
 20
185.1711816833899
 30
0.0
 11
215.9043156293246
 21
185.1711816833899
 31
0.0
  0
SOLID
  5
6C1
330
658
100
AcDbEntity
  8
标注
100
AcDbTrace
 10
199.5920452881172
 20
185.2795150167232
 30
0.0
 11
199.5920452881172
 21
185.0628483500566
 31
0.0
 12
198.9420452881173
 22
185.1711816833899
 32
0.0
 13
198.9420452881173
 23
185.1711816833899
 33
0.0
  0
SOLID
  5
6C2
330
658
100
AcDbEntity
  8
标注
100
AcDbTrace
 10
230.2999193038652
 20
185.2795150167232
 30
0.0
 11
230.2999193038652
 21
185.0628483500566
 31
0.0
 12
230.9499193038652
 22
185.1711816833899
 32
0.0
 13
230.9499193038652
 23
185.1711816833899
 33
0.0
  0
MTEXT
  5
6C3
330
658
100
AcDbEntity
  8
标注
100
AcDbMText
 10
214.9459822959913
 20
185.1711816833899
 30
0.0
 40
0.65
 41
0.0
 71
     5
 72
     1
  1
\A1;32"
 73
     1
 44
1.0
  0
POINT
  5
6C4
330
658
100
AcDbEntity
  8
Defpoints
 62
     0
100
AcDbPoint
 10
198.9420452881173
 20
194.7097225550427
 30
0.0
  0
POINT
  5
6C5
330
658
100
AcDbEntity
  8
Defpoints
 62
     0
100
AcDbPoint
 10
230.9499193038652
 20
194.3160217676578
 30
0.0
  0
POINT
  5
6C6
330
658
100
AcDbEntity
  8
Defpoints
 62
     0
100
AcDbPoint
 10
230.9499193038652
 20
185.1711816833899
 30
0.0
  0
ENDBLK
  5
664
330
658
100
AcDbEntity
  8
0
100
AcDbBlockEnd
  0
BLOCK
  5
670
330
665
100
AcDbEntity
  8
0
100
AcDbBlockBegin
  2
*D52
 70
     1
 10
0.0
 20
0.0
 30
0.0
  3
*D52
  1

  0
LINE
  5
6C7
330
665
100
AcDbEntity
  8
标注
370
    -2
100
AcDbLine
 10
216.9577933196133
 20
198.1604312164755
 30
0.0
 11
216.9577933196133
 21
187.0945799508261
 31
0.0
  0
LINE
  5
6C8
330
665
100
AcDbEntity
  8
标注
370
    -2
100
AcDbLine
 10
229.9499193038652
 20
198.1604312164745
 30
0.0
 11
229.9499193038652
 21
187.0945799508261
 31
0.0
  0
LINE
  5
6C9
330
665
100
AcDbEntity
  8
标注
370
    -2
100
AcDbLine
 10
217.6077933196133
 20
187.4145799508261
 30
0.0
 11
222.6038563117392
 21
187.4145799508261
 31
0.0
  0
LINE
  5
6CA
330
665
100
AcDbEntity
  8
标注
370
    -2
100
AcDbLine
 10
229.2999193038652
 20
187.4145799508261
 30
0.0
 11
224.3038563117392
 21
187.4145799508261
 31
0.0
  0
SOLID
  5
6CB
330
665
100
AcDbEntity
  8
标注
100
AcDbTrace
 10
217.6077933196133
 20
187.5229132841594
 30
0.0
 11
217.6077933196133
 21
187.3062466174928
 31
0.0
 12
216.9577933196133
 22
187.4145799508261
 32
0.0
 13
216.9577933196133
 23
187.4145799508261
 33
0.0
  0
SOLID
  5
6CC
330
665
100
AcDbEntity
  8
标注
100
AcDbTrace
 10
229.2999193038652
 20
187.5229132841594
 30
0.0
 11
229.2999193038652
 21
187.3062466174928
 31
0.0
 12
229.9499193038652
 22
187.4145799508261
 32
0.0
 13
229.9499193038652
 23
187.4145799508261
 33
0.0
  0
MTEXT
  5
6CD
330
665
100
AcDbEntity
  8
标注
100
AcDbMText
 10
223.4538563117392
 20
187.4145799508261
 30
0.0
 40
0.65
 41
0.0
 71
     5
 72
     1
  1
\A1;13"
 73
     1
 44
1.0
  0
POINT
  5
6CE
330
665
100
AcDbEntity
  8
Defpoints
 62
     0
100
AcDbPoint
 10
216.9577933196133
 20
199.0404312164755
 30
0.0
  0
POINT
  5
6CF
330
665
100
AcDbEntity
  8
Defpoints
 62
     0
100
AcDbPoint
 10
229.9499193038652
 20
199.0404312164745
 30
0.0
  0
POINT
  5
6D0
330
665
100
AcDbEntity
  8
Defpoints
 62
     0
100
AcDbPoint
 10
229.9499193038652
 20
187.4145799508261
 30
0.0
  0
ENDBLK
  5
671
330
665
100
AcDbEntity
  8
0
100
AcDbBlockEnd
  0
BLOCK
  5
67D
330
672
100
AcDbEntity
  8
0
100
AcDbBlockBegin
  2
*D53
 70
     1
 10
0.0
 20
0.0
 30
0.0
  3
*D53
  1

  0
LINE
  5
718
330
672
100
AcDbEntity
  8
标注
370
    -2
100
AcDbLine
 10
199.9420452881172
 20
199.2627934211875
 30
0.0
 11
199.9420452881172
 21
187.098589322541
 31
0.0
  0
LINE
  5
719
330
672
100
AcDbEntity
  8
标注
370
    -2
100
AcDbLine
 10
215.6900767841802
 20
199.2627934211875
 30
0.0
 11
215.6900767841802
 21
187.098589322541
 31
0.0
  0
LINE
  5
71A
330
672
100
AcDbEntity
  8
标注
370
    -2
100
AcDbLine
 10
200.5920452881172
 20
187.418589322541
 30
0.0
 11
205.6660610361487
 21
187.418589322541
 31
0.0
  0
LINE
  5
71B
330
672
100
AcDbEntity
  8
标注
370
    -2
100
AcDbLine
 10
215.0400767841802
 20
187.418589322541
 30
0.0
 11
209.9660610361487
 21
187.418589322541
 31
0.0
  0
SOLID
  5
71C
330
672
100
AcDbEntity
  8
标注
100
AcDbTrace
 10
200.5920452881172
 20
187.5269226558743
 30
0.0
 11
200.5920452881172
 21
187.3102559892076
 31
0.0
 12
199.9420452881172
 22
187.418589322541
 32
0.0
 13
199.9420452881172
 23
187.418589322541
 33
0.0
  0
SOLID
  5
71D
330
672
100
AcDbEntity
  8
标注
100
AcDbTrace
 10
215.0400767841802
 20
187.5269226558743
 30
0.0
 11
215.0400767841802
 21
187.3102559892076
 31
0.0
 12
215.6900767841802
 22
187.418589322541
 32
0.0
 13
215.6900767841802
 23
187.418589322541
 33
0.0
  0
MTEXT
  5
71E
330
672
100
AcDbEntity
  8
标注
100
AcDbMText
 10
207.8160610361487
 20
187.418589322541
 30
0.0
 40
0.65
 41
0.0
 71
     5
 72
     1
  1
\A1;15 3/4"
 73
     1
 44
1.0
  0
POINT
  5
71F
330
672
100
AcDbEntity
  8
Defpoints
 62
     0
100
AcDbPoint
 10
199.9420452881172
 20
200.1427934211875
 30
0.0
  0
POINT
  5
720
330
672
100
AcDbEntity
  8
Defpoints
 62
     0
100
AcDbPoint
 10
215.6900767841802
 20
200.1427934211875
 30
0.0
  0
POINT
  5
721
330
672
100
AcDbEntity
  8
Defpoints
 62
     0
100
AcDbPoint
 10
215.6900767841802
 20
187.418589322541
 30
0.0
  0
ENDBLK
  5
67E
330
672
100
AcDbEntity
  8
0
100
AcDbBlockEnd
  0
BLOCK
  5
685
330
67F
100
AcDbEntity
  8
0
100
AcDbBlockBegin
  2
*D54
 70
     1
 10
0.0
 20
0.0
 30
0.0
  3
*D54
  1

  0
LINE
  5
680
330
67F
100
AcDbEntity
  8
标注
370
    -2
100
AcDbLine
 10
216.909699555007
 20
223.9467469862881
 30
0.0
 11
216.3942130147025
 21
223.550800491462
 31
0.0
  0
MTEXT
  5
681
330
67F
100
AcDbEntity
  8
标注
100
AcDbMText
 10
217.6697117618661
 20
224.5305142543007
 30
0.0
 40
0.65
 41
0.0
 71
     5
 72
     1
  1
\A1;R2"
 11
0.793056215852955
 21
0.609148453578429
 31
0.0
 73
     1
 44
1.0
  0
SOLID
  5
682
330
67F
100
AcDbEntity
  8
标注
100
AcDbTrace
 10
216.3282219322315
 20
223.6367149148461
 30
0.0
 11
216.4602040971735
 21
223.4648860680779
 31
0.0
 12
215.8787264743981
 22
223.1548539966361
 32
0.0
 13
215.8787264743981
 23
223.1548539966361
 33
0.0
  0
POINT
  5
683
330
67F
100
AcDbEntity
  8
Defpoints
 62
     0
100
AcDbPoint
 10
215.8787264743981
 20
223.1548539966361
 30
0.0
  0
POINT
  5
684
330
67F
100
AcDbEntity
  8
Defpoints
 62
     0
100
AcDbPoint
 10
217.4648389061041
 20
224.3731509037929
 30
0.0
  0
ENDBLK
  5
686
330
67F
100
AcDbEntity
  8
0
100
AcDbBlockEnd
  0
ENDSEC
  0
SECTION
  2
ENTITIES
  0
MTEXT
  5
268
330
21
100
AcDbEntity
  8
标注
 48
5.0
100
AcDbMText
 10
207.4944642196045
 20
50.382554206885
 30
0.0
 40
0.7874015748031497
 41
15.1555422233215
 71
     1
 72
     5
  1
1/4" {\fArial|b0|i0|c0|p32;OVERHANG CUTOUT}
 73
     1
 44
1.0
  0
MTEXT
  5
269
330
21
100
AcDbEntity
  8
标注
 48
5.0
100
AcDbMText
 10
211.0364955916167
 20
80.08219346040618
 30
0.0
 40
0.7874015748031497
 41
15.1555422233215
 71
     1
 72
     5
  1
{\fArial|b0|i0|c0|p32;FLUSH CUTOUT}
 73
     1
 44
1.0
  0
MTEXT
  5
26A
330
21
100
AcDbEntity
  8
标注
 48
5.0
100
AcDbMText
 10
209.6838485805293
 20
109.6371411595318
 30
0.0
 40
0.7874015748031497
 41
15.1555422233215
 71
     1
 72
     5
  1
1/4" {\fArial|b0|i0|c0|p32;REVEAL CUTOUT}
 73
     1
 44
1.0
  0
MTEXT
  5
26B
330
21
100
AcDbEntity
  8
标注
 48
5.0
100
AcDbMText
 10
214.4931348695982
 20
141.0170424418815
 30
0.0
 40
0.7874015748031497
 41
15.1555422233215
 71
     1
 72
     5
  1
1/4" {\fArial|b0|i0|c0|p32;OVERHANG CUTOUT}
 73
     1
 44
1.0
  0
MTEXT
  5
26C
330
21
100
AcDbEntity
  8
标注
 48
5.0
100
AcDbMText
 10
214.4931348695978
 20
142.9855463788894
 30
0.0
 40
0.7874015748031497
 41
15.1555422233215
 71
     1
 72
     5
  1
{\fArial|b0|i0|c0|p32;FLUSH CUTOUT}
 73
     1
 44
1.0
  0
MTEXT
  5
26D
330
21
100
AcDbEntity
  8
标注
 48
5.0
100
AcDbMText
 10
214.4931348695982
 20
144.9540503158973
 30
0.0
 40
0.7874015748031497
 41
15.1555422233215
 71
     1
 72
     5
  1
1/4" {\fArial|b0|i0|c0|p32;REVEAL CUTOUT}
 73
     1
 44
1.0
  0
LINE
  5
26E
330
21
100
AcDbEntity
  8
虚线
 62
    11
 48
0.15
370
    35
100
AcDbLine
 10
206.8277287890312
 20
140.4688775042707
 30
0.0
 11
213.0445337931152
 21
140.4688775042707
 31
0.0
  0
LINE
  5
26F
330
21
100
AcDbEntity
  8
截面层
 62
     1
 48
0.2
370
    35
100
AcDbLine
 10
206.8277287890312
 20
142.4373814412786
 30
0.0
 11
213.0445337931152
 21
142.4373814412786
 31
0.0
  0
LINE
  5
270
330
21
100
AcDbEntity
  8
虚线
 62
     3
 48
0.3
370
    35
100
AcDbLine
 10
206.8277287890312
 20
144.4058853782865
 30
0.0
 11
213.0445337931152
 21
144.4058853782865
 31
0.0
  0
MTEXT
  5
271
330
21
100
AcDbEntity
  8
标注
 48
5.0
100
AcDbMText
 10
211.9276857393846
 20
216.0878276870517
 30
0.0
 40
0.7874015748031497
 41
15.1555422233215
 71
     1
 72
     5
  1
{\fArial|b0|i0|c0|p32;FRONT VIEW }
 73
     1
 44
1.0
  0
MTEXT
  5
272
330
21
100
AcDbEntity
  8
标注
 48
5.0
100
AcDbMText
 10
211.6932275921564
 20
182.0105508529116
 30
0.0
 40
0.7874015748031497
 41
15.1555422233215
 71
     1
 72
     5
  1
{\fArial|b0|i0|c0|p32;OVERHEAD VIEW}
 73
     1
 44
1.0
  0
DIMENSION
  5
4A8
102
{ACAD_XDICTIONARY
360
4A9
102
}
102
{ACAD_REACTORS
330
4AA
102
}
330
21
100
AcDbEntity
  8
标注
100
AcDbDimension
  2
*D54
 10
217.4648389061041
 20
224.3731509037929
 30
0.0
 11
217.6697117618661
 21
224.5305142543007
 31
0.0
 70
   164
 71
     5
 42
2.000000000000056
  3
副本Standard
100
AcDbRadialDimension
 15
215.8787264743981
 25
223.1548539966361
 35
0.0
 40
0.0
1001
ACAD
1000
DSTYLE
1002
{
1070
   288
1070
     1
1002
}
  0
DIMENSION
  5
4AB
102
{ACAD_XDICTIONARY
360
4AC
102
}
102
{ACAD_REACTORS
330
4AD
102
}
330
21
100
AcDbEntity
  8
标注
100
AcDbDimension
  2
*D42
 10
200.6354492964505
 20
222.4138341543584
 30
0.0
 11
200.8534985271599
 21
222.5523644546473
 31
0.0
 70
   164
 71
     5
 42
2.0
  3
副本Standard
100
AcDbRadialDimension
 15
198.9473262199904
 25
221.3413415069601
 35
0.0
 40
0.0
  0
ARC
  5
4AE
102
{ACAD_REACTORS
330
4AD
102
}
330
21
100
AcDbEntity
  8
截面层
100
AcDbCircle
 10
200.6354492964504
 20
222.4138341543584
 30
0.0
 40
2.0
100
AcDbArc
 50
182.9828715692947
 51
264.6275905939339
  0
ARC
  5
4AF
330
21
100
AcDbEntity
  8
截面层
100
AcDbCircle
 10
211.5873830614369
 20
222.4138341543585
 30
0.0
 40
2.0
100
AcDbArc
 50
275.3724094060668
 51
357.0171284307061
  0
ARC
  5
4B0
102
{ACAD_REACTORS
330
4AA
102
}
330
21
100
AcDbEntity
  8
截面层
100
AcDbCircle
 10
217.4648389061041
 20
224.3731509037929
 30
0.0
 40
2.0
100
AcDbArc
 50
183.0063160085372
 51
265.2409076048693
  0
ARC
  5
4B1
330
21
100
AcDbEntity
  8
截面层
100
AcDbCircle
 10
225.8603556565074
 20
224.3731509037929
 30
0.0
 40
2.0
100
AcDbArc
 50
274.7590923951299
 51
356.9936839914612
  0
DIMENSION
  5
4B2
102
{ACAD_XDICTIONARY
360
4B3
102
}
102
{ACAD_REACTORS
330
4B4
102
}
330
21
100
AcDbEntity
  8
标注
100
AcDbDimension
  2
*D41
 10
194.6704395567531
 20
230.1975300276099
 30
0.0
 11
194.670439556753
 21
225.1896560118619
 31
0.0
 70
    32
 71
     5
 42
10.015748031496
  3
副本Standard
100
AcDbAlignedDimension
 13
203.8870067301248
 23
220.1817819961139
 33
0.0
 14
197.1472267399818
 24
230.1975300276099
 34
0.0
 50
90.0
100
AcDbRotatedDimension
  0
ARC
  5
4B5
102
{ACAD_REACTORS
330
4F4
102
}
330
21
100
AcDbEntity
  8
0
100
AcDbCircle
 10
178.7688169416604
 20
199.0404312164745
 30
0.0
 40
51.18110236220473
100
AcDbArc
 50
354.4700400460037
 51
5.529959953996394
  0
ARC
  5
4B6
102
{ACAD_REACTORS
330
4EB
102
}
330
21
100
AcDbEntity
  8
0
100
AcDbCircle
 10
223.4538563117393
 20
222.2687776731675
 30
0.0
 40
31.49606299212599
100
AcDbArc
 50
264.3931292734978
 51
275.6068707265022
  0
ARC
  5
4B7
102
{ACAD_REACTORS
330
4FD
102
}
330
21
100
AcDbEntity
  8
0
100
AcDbCircle
 10
226.1849032769018
 20
194.4497563893912
 30
0.0
 40
3.543307086614173
100
AcDbArc
 50
275.6068707265022
 51
354.4700400460037
  0
ARC
  5
4B8
102
{ACAD_REACTORS
330
4EB
102
}
330
21
100
AcDbEntity
  8
0
100
AcDbCircle
 10
223.4538563117393
 20
175.8120847597816
 30
0.0
 40
31.49606299212599
100
AcDbArc
 50
84.3931292734978
 51
95.60687072650223
  0
ARC
  5
4B9
330
21
100
AcDbEntity
  8
0
100
AcDbCircle
 10
220.7228093465766
 20
203.6311060435581
 30
0.0
 40
3.543307086614173
100
AcDbArc
 50
95.60687072650223
 51
174.4700400460036
  0
ARC
  5
4BA
330
21
100
AcDbEntity
  8
0
100
AcDbCircle
 10
226.1849032769018
 20
203.6311060435581
 30
0.0
 40
3.543307086614173
100
AcDbArc
 50
5.529959953996394
 51
84.3931292734978
  0
ARC
  5
4BB
330
21
100
AcDbEntity
  8
0
100
AcDbCircle
 10
268.1388956818179
 20
199.0404312164755
 30
0.0
 40
51.18110236220473
100
AcDbArc
 50
174.4700400460036
 51
185.5299599540094
  0
ARC
  5
4BC
330
21
100
AcDbEntity
  8
0
100
AcDbCircle
 10
220.7228093465767
 20
194.4497563893912
 30
0.0
 40
3.543307086614173
100
AcDbArc
 50
185.5299599539964
 51
264.3931292734978
  0
ARC
  5
4BD
102
{ACAD_REACTORS
330
4F1
102
}
330
21
100
AcDbEntity
  8
0
100
AcDbCircle
 10
144.8239350518968
 20
200.1427934211875
 30
0.0
 40
70.86614173228347
100
AcDbArc
 50
355.4703238704389
 51
4.529676129561188
  0
ARC
  5
4BE
102
{ACAD_REACTORS
330
4FA
102
}
330
21
100
AcDbEntity
  8
0
100
AcDbCircle
 10
211.5440199386891
 20
194.8570359809381
 30
0.0
 40
3.937007874015747
100
AcDbArc
 50
274.5258269465711
 51
355.4703238704389
  0
ARC
  5
4BF
102
{ACAD_REACTORS
330
4F1
102
}
330
21
100
AcDbEntity
  8
0
100
AcDbCircle
 10
270.8081870204007
 20
200.1427934211875
 30
0.0
 40
70.86614173228347
100
AcDbArc
 50
175.4703238704388
 51
184.5296761295612
  0
ARC
  5
4C0
330
21
100
AcDbEntity
  8
0
100
AcDbCircle
 10
204.0881021336084
 20
194.8570359809381
 30
0.0
 40
3.937007874015747
100
AcDbArc
 50
184.5296761295612
 51
265.4741730533242
  0
ARC
  5
4C1
102
{ACAD_REACTORS
330
4E7
102
}
330
21
100
AcDbEntity
  8
0
100
AcDbCircle
 10
207.8160610361487
 20
158.3317697991402
 30
0.0
 40
51.18110236220473
100
AcDbArc
 50
85.47417305332432
 51
94.5258269465711
  0
ARC
  5
4C2
330
21
100
AcDbEntity
  8
0
100
AcDbCircle
 10
204.0881021336084
 20
205.4285508614368
 30
0.0
 40
3.937007874015747
100
AcDbArc
 50
94.5258269465711
 51
175.4703238704388
  0
ARC
  5
4C3
330
21
100
AcDbEntity
  8
0
100
AcDbCircle
 10
211.5440199386891
 20
205.4285508614368
 30
0.0
 40
3.937007874015747
100
AcDbArc
 50
4.529676129561188
 51
85.47417305332432
  0
LINE
  5
4C4
102
{ACAD_REACTORS
330
505
102
}
330
21
100
AcDbEntity
  8
0
100
AcDbLine
 10
226.4066122172545
 20
189.7727146810437
 30
0.0
 11
203.8790531621367
 21
189.7727146810271
 31
0.0
  0
ARC
  5
4C5
102
{ACAD_REACTORS
330
4F7
102
}
330
21
100
AcDbEntity
  8
0
100
AcDbCircle
 10
226.4066122172511
 20
194.3160217676578
 30
0.0
 40
4.543307086614173
100
AcDbArc
 50
270.0
 51
0.000000000000007
  0
ARC
  5
4C6
330
21
100
AcDbEntity
  8
0
100
AcDbCircle
 10
203.8790531621331
 20
194.7097225550427
 30
0.0
 40
4.937007874015748
100
AcDbArc
 50
180.0
 51
270.0
  0
LINE
  5
4C7
102
{ACAD_REACTORS
330
4EE
102
}
330
21
100
AcDbEntity
  8
0
100
AcDbLine
 10
226.4066122172511
 20
208.3081477519077
 30
0.0
 11
217.5085918286681
 21
208.3081477519077
 31
0.0
  0
LINE
  5
4C8
330
21
100
AcDbEntity
  8
0
100
AcDbLine
 10
203.8790531621331
 20
210.5128721613448
 30
0.0
 11
211.654643713314
 21
210.5128721613448
 31
0.0
  0
ARC
  5
4C9
330
21
100
AcDbEntity
  8
0
100
AcDbCircle
 10
203.8790531621331
 20
205.5758642873291
 30
0.0
 40
4.937007874015748
100
AcDbArc
 50
90.0
 51
180.0
  0
LINE
  5
4CA
102
{ACAD_REACTORS
330
4F7
102
}
330
21
100
AcDbEntity
  8
0
100
AcDbLine
 10
230.9499193038652
 20
194.3160217676578
 30
0.0
 11
230.9499193038652
 21
203.7648406652935
 31
0.0
  0
ARC
  5
4CB
102
{ACAD_REACTORS
330
4EE
102
}
330
21
100
AcDbEntity
  8
0
100
AcDbCircle
 10
226.4066122172511
 20
203.7648406652935
 30
0.0
 40
4.543307086614173
100
AcDbArc
 50
0.000000000000007
 51
90.0
  0
LINE
  5
4CC
102
{ACAD_REACTORS
330
4F7
102
}
330
21
100
AcDbEntity
  8
0
100
AcDbLine
 10
198.9420452881173
 20
194.7097225550427
 30
0.0
 11
198.9420452881173
 21
205.5758642873291
 31
0.0
  0
ARC
  5
4CD
330
21
100
AcDbEntity
  8
0
100
AcDbCircle
 10
211.654643713314
 20
205.5758642873291
 30
0.0
 40
4.937007874015748
100
AcDbArc
 50
48.72506540151809
 51
90.0
  0
ARC
  5
4CE
330
21
100
AcDbEntity
  8
0
100
AcDbCircle
 10
217.5085918286681
 20
212.2451556259234
 30
0.0
 40
3.937007874015747
100
AcDbArc
 50
228.7250654015181
 51
270.0
  0
ARC
  5
4CF
102
{ACAD_REACTORS
330
4E7
102
}
330
21
100
AcDbEntity
  8
0
100
AcDbCircle
 10
207.8160610361487
 20
241.9538170432348
 30
0.0
 40
51.18110236220473
100
AcDbArc
 50
265.4741730534288
 51
274.5258269466757
  0
CIRCLE
  5
4D0
330
21
100
AcDbEntity
  8
0
100
AcDbCircle
 10
207.8160610361953
 20
204.0010611377228
 30
0.0
 40
1.771653543307085
  0
LINE
  5
4D1
330
21
100
AcDbEntity
  8
截面层
100
AcDbLine
 10
228.1586602734319
 20
230.0006796339092
 30
0.0
 11
227.8576031753581
 21
224.2682588238011
 31
0.0
  0
LINE
  5
4D2
330
21
100
AcDbEntity
  8
截面层
100
AcDbLine
 10
213.9854319269752
 20
230.0006796339092
 30
0.0
 11
213.5846733331062
 21
222.3097593221697
 31
0.0
  0
LINE
  5
4D3
330
21
100
AcDbEntity
  8
截面层
100
AcDbLine
 10
198.237400430912
 20
230.0006796339092
 30
0.0
 11
198.6381590247811
 21
222.3097593221695
 31
0.0
  0
LINE
  5
4D4
330
21
100
AcDbEntity
  8
截面层
100
AcDbLine
 10
215.1665342891798
 20
230.0006796339092
 30
0.0
 11
215.4675913872535
 21
224.2682588238012
 31
0.0
  0
ARC
  5
4D5
330
21
100
AcDbEntity
  8
截面层
100
AcDbCircle
 10
207.2166510898546
 20
292.3953481119932
 30
0.0
 40
72.29028747165672
100
AcDbArc
 50
264.6275905939336
 51
267.3600590919377
  0
ARC
  5
4D6
330
21
100
AcDbEntity
  8
截面层
100
AcDbCircle
 10
224.3682798513967
 20
307.2939975505167
 30
0.0
 40
85.20771782409743
100
AcDbArc
 50
265.2409076048691
 51
266.6830315546355
  0
ARC
  5
4D7
330
21
100
AcDbEntity
  8
截面层
100
AcDbCircle
 10
205.0061812680356
 20
292.3953481119474
 30
0.0
 40
72.2902874716107
100
AcDbArc
 50
272.639940908059
 51
275.3724094060676
  0
ARC
  5
4D8
330
21
100
AcDbEntity
  8
截面层
100
AcDbCircle
 10
218.9569147112162
 20
307.2939975505009
 30
0.0
 40
85.20771782408159
100
AcDbArc
 50
273.3169684453645
 51
274.7590923951308
  0
LINE
  5
4D9
102
{ACAD_REACTORS
330
4B4
102
}
330
21
100
AcDbEntity
  8
截面层
100
AcDbLine
 10
197.1472267399818
 20
230.1975300276099
 30
0.0
 11
198.0405500372113
 21
230.1975300276099
 31
0.0
  0
LINE
  5
4DA
330
21
100
AcDbEntity
  8
截面层
100
AcDbLine
 10
214.1822823206759
 20
230.1975300276099
 30
0.0
 11
214.9696838954791
 21
230.1975300276099
 31
0.0
  0
ARC
  5
4DB
330
21
100
AcDbEntity
  8
截面层
100
AcDbCircle
 10
198.0405500372113
 20
230.0006796339092
 30
0.0
 40
0.1968503937007874
100
AcDbArc
 50
0.000000000000007
 51
90.0
  0
ARC
  5
4DC
330
21
100
AcDbEntity
  8
截面层
100
AcDbCircle
 10
214.1822823206759
 20
230.0006796339092
 30
0.0
 40
0.1968503937007874
100
AcDbArc
 50
90.0
 51
180.0
  0
ARC
  5
4DD
330
21
100
AcDbEntity
  8
截面层
100
AcDbCircle
 10
214.9696838954791
 20
230.0006796339092
 30
0.0
 40
0.1968503937007874
100
AcDbArc
 50
0.000000000000007
 51
90.0
  0
LINE
  5
4DE
102
{ACAD_REACTORS
330
4E4
102
}
330
21
100
AcDbEntity
  8
截面层
100
AcDbLine
 10
228.3555106671327
 20
230.1975300276099
 30
0.0
 11
229.1551007557298
 21
230.1975300276099
 31
0.0
  0
ARC
  5
4DF
330
21
100
AcDbEntity
  8
截面层
100
AcDbCircle
 10
228.3555106671327
 20
230.0006796339092
 30
0.0
 40
0.1968503937007874
100
AcDbArc
 50
90.0
 51
180.0
  0
LINE
  5
4E0
330
21
100
AcDbEntity
  8
0
100
AcDbLine
 10
198.0405500372113
 20
230.1975300276099
 30
0.0
 11
214.1822823206759
 21
230.1975300276099
 31
0.0
  0
LINE
  5
4E1
330
21
100
AcDbEntity
  8
0
100
AcDbLine
 10
214.9696838954791
 20
230.1975300276099
 30
0.0
 11
228.3555106671327
 21
230.1975300276099
 31
0.0
  0
DIMENSION
  5
4E2
102
{ACAD_XDICTIONARY
360
4E3
102
}
102
{ACAD_REACTORS
330
4E4
102
}
330
21
100
AcDbEntity
  8
标注
100
AcDbDimension
  2
*D46
 10
231.8470028484298
 20
222.2290260906021
 30
0.0
 11
231.8470028484298
 21
226.213278059106
 31
0.0
 70
    32
 71
     5
 42
7.968503937007795
  3
副本Standard
100
AcDbAlignedDimension
 13
229.1551007557298
 23
230.1975300276099
 33
0.0
 14
223.8870067301261
 24
222.2290260906021
 34
0.0
 50
90.0
100
AcDbRotatedDimension
  0
DIMENSION
  5
4E5
102
{ACAD_XDICTIONARY
360
4E6
102
}
102
{ACAD_REACTORS
330
4E7
102
}
330
21
100
AcDbEntity
  8
标注
100
AcDbDimension
  2
*D45
 10
196.4799907917768
 20
190.7727146810299
 30
0.0
 11
196.4799907917768
 21
200.1427934211875
 31
0.0
 70
   160
 71
     5
 42
18.74015748031502
  3
副本Standard
100
AcDbAlignedDimension
 13
207.8160610361954
 23
209.5128721613449
 33
0.0
 14
207.8160610362225
 24
190.7727146810299
 34
0.0
 50
90.0
100
AcDbRotatedDimension
  0
DIMENSION
  5
4E8
330
21
100
AcDbEntity
  8
标注
100
AcDbDimension
  2
*D38
 10
194.0420299555844
 20
189.7727146810271
 30
0.0
 11
194.0420299555844
 21
200.142793421186
 31
0.0
 70
   160
 71
     5
 42
20.74015748031769
  3
副本Standard
100
AcDbAlignedDimension
 13
203.8790531621331
 23
210.5128721613448
 33
0.0
 14
203.8790531621331
 24
189.7727146810271
 34
0.0
 50
90.0
100
AcDbRotatedDimension
  0
DIMENSION
  5
4E9
102
{ACAD_XDICTIONARY
360
4EA
102
}
102
{ACAD_REACTORS
330
4EB
102
}
330
21
100
AcDbEntity
  8
标注
100
AcDbDimension
  2
*D44
 10
233.6820369199558
 20
190.7727146810413
 30
0.0
 11
233.6820369199558
 21
199.0404312164745
 31
0.0
 70
   160
 71
     5
 42
16.53543307086625
  3
副本Standard
100
AcDbAlignedDimension
 13
223.4538563117393
 23
207.3081477519076
 33
0.0
 14
223.4538563117393
 24
190.7727146810413
 34
0.0
 50
90.0
100
AcDbRotatedDimension
  0
DIMENSION
  5
4EC
102
{ACAD_XDICTIONARY
360
4ED
102
}
102
{ACAD_REACTORS
330
4EE
102
}
330
21
100
AcDbEntity
  8
标注
100
AcDbDimension
  2
*D43
 10
236.0231978353522
 20
189.7727146810437
 30
0.0
 11
236.0231978353522
 21
199.0404312164757
 31
0.0
 70
   160
 71
     5
 42
18.535433070864
  3
副本Standard
100
AcDbAlignedDimension
 13
226.4066122172511
 23
208.3081477519077
 33
0.0
 14
226.4066122172511
 24
189.7727146810437
 34
0.0
 50
90.0
100
AcDbRotatedDimension
  0
DIMENSION
  5
4EF
102
{ACAD_XDICTIONARY
360
4F0
102
}
102
{ACAD_REACTORS
330
4F1
102
}
330
21
100
AcDbEntity
  8
标注
100
AcDbDimension
  2
*D53
 10
215.6900767841802
 20
187.418589322541
 30
0.0
 11
207.8160610361487
 21
187.418589322541
 31
0.0
 70
    32
 71
     5
 42
15.74803149606302
  3
副本Standard
100
AcDbAlignedDimension
 13
199.9420452881172
 23
200.1427934211875
 33
0.0
 14
215.6900767841802
 24
200.1427934211875
 34
0.0
 50
0.000000000000007
100
AcDbRotatedDimension
  0
DIMENSION
  5
4F2
102
{ACAD_XDICTIONARY
360
4F3
102
}
102
{ACAD_REACTORS
330
4F4
102
}
330
21
100
AcDbEntity
  8
标注
100
AcDbDimension
  2
*D52
 10
229.9499193038652
 20
187.4145799508261
 30
0.0
 11
223.4538563117392
 21
187.4145799508261
 31
0.0
 70
    32
 71
     5
 42
12.99212598425188
  3
副本Standard
100
AcDbAlignedDimension
 13
216.9577933196133
 23
199.0404312164755
 33
0.0
 14
229.9499193038652
 24
199.0404312164745
 34
0.0
 50
0.000000000000007
100
AcDbRotatedDimension
  0
DIMENSION
  5
4F5
102
{ACAD_XDICTIONARY
360
4F6
102
}
102
{ACAD_REACTORS
330
4F7
102
}
330
21
100
AcDbEntity
  8
标注
100
AcDbDimension
  2
*D51
 10
230.9499193038652
 20
185.1711816833899
 30
0.0
 11
214.9459822959913
 21
185.1711816833899
 31
0.0
 70
   160
 71
     5
 42
32.00787401574792
  3
副本Standard
100
AcDbAlignedDimension
 13
198.9420452881173
 23
194.7097225550427
 33
0.0
 14
230.9499193038652
 24
194.3160217676578
 34
0.0
 50
0.000000000000007
100
AcDbRotatedDimension
  0
DIMENSION
  5
4F8
102
{ACAD_XDICTIONARY
360
4F9
102
}
102
{ACAD_REACTORS
330
4FA
102
}
330
21
100
AcDbEntity
  8
标注
100
AcDbDimension
  2
*D50
 10
211.5440199386891
 20
194.8570359809381
 30
0.0
 11
211.8340446208183
 21
194.6135609483025
 31
0.0
 70
   164
 71
     5
 42
3.937007874015804
  3
副本Standard
100
AcDbRadialDimension
 15
214.5593519310212
 25
192.325671926504
 35
0.0
 40
0.0
  0
DIMENSION
  5
4FB
102
{ACAD_XDICTIONARY
360
4FC
102
}
102
{ACAD_REACTORS
330
4FD
102
}
330
21
100
AcDbEntity
  8
标注
100
AcDbDimension
  2
*D49
 10
226.1849032769017
 20
194.4497563893912
 30
0.0
 11
226.2564408026443
 21
194.3898515079288
 31
0.0
 70
   164
 71
     5
 42
3.543307086614049
  3
副本Standard
100
AcDbRadialDimension
 15
228.9015181785228
 25
192.1748874730929
 35
0.0
 40
0.0
  0
DIMENSION
  5
4FE
330
21
100
AcDbEntity
  8
标注
100
AcDbDimension
  2
*D40
 10
198.9420452881173
 20
187.418589322541
 30
0.0
 11
197.1170452881173
 21
187.418589322541
 31
0.0
 70
    32
 71
     5
 42
0.9999999999999147
  3
副本Standard
100
AcDbAlignedDimension
 13
199.9420452881172
 23
200.1427934211875
 33
0.0
 14
198.9420452881173
 24
194.7097225550427
 34
0.0
 50
180.0
100
AcDbRotatedDimension
  0
DIMENSION
  5
4FF
330
21
100
AcDbEntity
  8
标注
100
AcDbDimension
  2
*D48
 10
215.6900767841802
 20
199.2627934211874
 30
0.0
 11
212.6734101175135
 21
199.2627934211874
 31
0.0
 70
    32
 71
     5
 42
1.267716535432981
  3
副本Standard
100
AcDbAlignedDimension
 13
216.9577933196132
 23
199.0404312164755
 33
0.0
 14
215.6900767841802
 24
199.0404312164755
 34
0.0
 50
180.0
100
AcDbRotatedDimension
  0
DIMENSION
  5
502
330
21
100
AcDbEntity
  8
标注
100
AcDbDimension
  2
*D39
 10
196.4799907917767
 20
210.5128721613448
 30
0.0
 11
196.4799907917767
 21
212.3378721613448
 31
0.0
 70
    32
 71
     5
 42
0.9999999999998863
  3
副本Standard
100
AcDbAlignedDimension
 13
206.9360610361954
 23
209.5128721613449
 33
0.0
 14
203.8790531621331
 24
210.5128721613448
 34
0.0
 50
90.0
100
AcDbRotatedDimension
  0
DIMENSION
  5
503
102
{ACAD_XDICTIONARY
360
504
102
}
102
{ACAD_REACTORS
330
505
102
}
330
21
100
AcDbEntity
  8
标注
100
AcDbDimension
  2
*D47
 10
233.6820369199558
 20
189.7727146810437
 30
0.0
 11
233.6820369199558
 21
187.9477146810437
 31
0.0
 70
    32
 71
     5
 42
0.9999999999976694
  3
副本Standard
100
AcDbAlignedDimension
 13
224.3338563117393
 23
190.7727146810413
 33
0.0
 14
226.4066122172545
 24
189.7727146810437
 34
0.0
 50
90.0
100
AcDbRotatedDimension
  0
LINE
  5
506
330
21
100
AcDbEntity
  8
中心线
 48
0.1
100
AcDbLine
 10
221.6625972813052
 20
224.6816173255567
 30
0.0
 11
221.6625972813055
 21
220.986050690191
 31
0.0
  0
LINE
  5
507
330
21
100
AcDbEntity
  8
0
100
AcDbLine
 10
223.4327444795891
 20
222.0321756969013
 30
0.0
 11
219.8924500830218
 21
222.0321756969013
 31
0.0
  0
LINE
  5
508
330
21
100
AcDbEntity
  8
截面层
100
AcDbLine
 10
219.8924500830218
 20
222.0321756969013
 30
0.0
 11
219.544203080284
 21
222.0321756969013
 31
0.0
  0
LINE
  5
509
330
21
100
AcDbEntity
  8
截面层
100
AcDbLine
 10
223.8870067301248
 20
222.229026090602
 30
0.0
 11
223.7340518215155
 21
222.0321756969013
 31
0.0
  0
LINE
  5
50A
330
21
100
AcDbEntity
  8
截面层
100
AcDbLine
 10
223.7340518215155
 20
222.0321756969013
 30
0.0
 11
223.4327444795891
 21
222.0321756969013
 31
0.0
  0
LINE
  5
50B
330
21
100
AcDbEntity
  8
截面层
100
AcDbLine
 10
219.544203080284
 20
222.0321756969013
 30
0.0
 11
219.4381878324868
 21
222.229026090602
 31
0.0
  0
LINE
  5
50C
330
21
100
AcDbEntity
  8
0
100
AcDbLine
 10
223.8870067301248
 20
222.229026090602
 30
0.0
 11
219.4381878324868
 21
222.229026090602
 31
0.0
  0
LINE
  5
50D
330
21
100
AcDbEntity
  8
中心线
 48
0.1
100
AcDbLine
 10
206.1114161789431
 20
222.6343732310685
 30
0.0
 11
206.1114161789435
 21
218.9388065957027
 31
0.0
  0
LINE
  5
50E
330
21
100
AcDbEntity
  8
0
100
AcDbLine
 10
207.881563377227
 20
219.984931602413
 30
0.0
 11
204.3412689806597
 21
219.984931602413
 31
0.0
  0
LINE
  5
50F
330
21
100
AcDbEntity
  8
截面层
100
AcDbLine
 10
204.3412689806597
 20
219.984931602413
 30
0.0
 11
203.9930219779217
 21
219.984931602413
 31
0.0
  0
LINE
  5
510
330
21
100
AcDbEntity
  8
截面层
100
AcDbLine
 10
208.3358256277626
 20
220.1817819961139
 30
0.0
 11
208.1828707191534
 21
219.984931602413
 31
0.0
  0
LINE
  5
511
330
21
100
AcDbEntity
  8
截面层
100
AcDbLine
 10
208.1828707191534
 20
219.984931602413
 30
0.0
 11
207.881563377227
 21
219.984931602413
 31
0.0
  0
LINE
  5
512
102
{ACAD_REACTORS
330
4B4
102
}
330
21
100
AcDbEntity
  8
截面层
100
AcDbLine
 10
203.9930219779217
 20
219.984931602413
 30
0.0
 11
203.8870067301248
 21
220.1817819961139
 31
0.0
  0
LINE
  5
513
330
21
100
AcDbEntity
  8
0
100
AcDbLine
 10
208.3358256277626
 20
220.1817819961139
 30
0.0
 11
203.8870067301248
 21
220.1817819961139
 31
0.0
  0
LINE
  5
51F
330
21
100
AcDbEntity
  8
中心线
 48
0.1
100
AcDbLine
 10
223.4538563117393
 20
205.7639618454706
 30
0.0
 11
223.4538563117393
 21
197.7154629819248
 31
0.0
  0
LINE
  5
520
330
21
100
AcDbEntity
  8
中心线
 48
0.1
100
AcDbLine
 10
227.9813936823523
 20
201.7963367282856
 30
0.0
 11
218.92820994296
 21
201.7963367282856
 31
0.0
  0
CIRCLE
  5
521
330
21
100
AcDbEntity
  8
0
100
AcDbCircle
 10
223.4548018126562
 20
201.7963367282856
 30
0.0
 40
1.771653543307085
  0
CIRCLE
  5
522
330
21
100
AcDbEntity
  8
0
100
AcDbCircle
 10
223.4548018126562
 20
201.7963367282856
 30
0.0
 40
2.165354330708659
  0
CIRCLE
  5
523
330
21
100
AcDbEntity
  8
0
100
AcDbCircle
 10
223.4548018126562
 20
201.7963367282856
 30
0.0
 40
2.283464566929133
  0
CIRCLE
  5
524
330
21
100
AcDbEntity
  8
0
100
AcDbCircle
 10
207.8170065371124
 20
204.0010611377228
 30
0.0
 40
2.165354330708659
  0
CIRCLE
  5
525
330
21
100
AcDbEntity
  8
0
100
AcDbCircle
 10
207.8170065371124
 20
204.0010611377228
 30
0.0
 40
2.283464566929133
  0
LINE
  5
526
330
21
100
AcDbEntity
  8
中心线
 48
0.1
100
AcDbLine
 10
207.8160610361953
 20
207.9686862549077
 30
0.0
 11
207.8160610361953
 21
199.920187391362
 31
0.0
  0
LINE
  5
527
330
21
100
AcDbEntity
  8
中心线
 48
0.1
100
AcDbLine
 10
212.3435984068083
 20
204.0010611377228
 30
0.0
 11
203.2904146674161
 21
204.0010611377228
 31
0.0
  0
LINE
  5
528
330
21
100
AcDbEntity
  8
中心线
 48
0.1
100
AcDbLine
 10
212.0942391251291
 20
163.0977747224965
 30
0.0
 11
203.0410553857368
 21
163.0977747224965
 31
0.0
  0
LINE
  5
529
330
21
100
AcDbEntity
  8
中心线
 48
0.1
100
AcDbLine
 10
207.5667017545161
 20
167.0653998396815
 30
0.0
 11
207.5667017545161
 21
159.0169009761358
 31
0.0
  0
CIRCLE
  5
52A
330
21
100
AcDbEntity
  8
0
100
AcDbCircle
 10
207.5676472554331
 20
163.0977747224965
 30
0.0
 40
2.283464566929133
  0
CIRCLE
  5
52B
330
21
100
AcDbEntity
  8
0
100
AcDbCircle
 10
207.5676472554331
 20
163.0977747224965
 30
0.0
 40
2.165354330708659
  0
CIRCLE
  5
52C
330
21
100
AcDbEntity
  8
0
100
AcDbCircle
 10
223.205442530977
 20
160.8930503130594
 30
0.0
 40
2.283464566929133
  0
CIRCLE
  5
52D
330
21
100
AcDbEntity
  8
0
100
AcDbCircle
 10
223.205442530977
 20
160.8930503130594
 30
0.0
 40
2.165354330708659
  0
CIRCLE
  5
52E
330
21
100
AcDbEntity
  8
0
100
AcDbCircle
 10
223.205442530977
 20
160.8930503130594
 30
0.0
 40
1.771653543307085
  0
LINE
  5
52F
330
21
100
AcDbEntity
  8
中心线
 48
0.1
100
AcDbLine
 10
227.732034400673
 20
160.8930503130594
 30
0.0
 11
218.6788506612807
 21
160.8930503130594
 31
0.0
  0
LINE
  5
530
330
21
100
AcDbEntity
  8
中心线
 48
0.1
100
AcDbLine
 10
223.20449703006
 20
164.8606754302443
 30
0.0
 11
223.20449703006
 21
156.8121765666986
 31
0.0
  0
CIRCLE
  5
531
330
21
100
AcDbEntity
  8
0
100
AcDbCircle
 10
207.5667017545161
 20
163.0977747224965
 30
0.0
 40
1.771653543307085
  0
ARC
  5
532
330
21
100
AcDbEntity
  8
截面层
 62
     1
 48
0.2
370
    35
100
AcDbCircle
 10
207.5667017544695
 20
201.0505306280085
 30
0.0
 40
51.18110236220473
100
AcDbArc
 50
265.4741730534288
 51
270.0
  0
ARC
  5
533
330
21
100
AcDbEntity
  8
0
100
AcDbCircle
 10
217.2592325469889
 20
171.3418692106972
 30
0.0
 40
3.937007874015747
100
AcDbArc
 50
228.7250654015181
 51
270.0
  0
ARC
  5
534
330
21
100
AcDbEntity
  8
0
100
AcDbCircle
 10
211.4052844316348
 20
164.6725778721028
 30
0.0
 40
4.937007874015748
100
AcDbArc
 50
48.72506540151809
 51
90.0
  0
LINE
  5
535
330
21
100
AcDbEntity
  8
0
100
AcDbLine
 10
198.6926860064381
 20
153.8064361398165
 30
0.0
 11
198.6926860064381
 21
164.6725778721028
 31
0.0
  0
ARC
  5
536
330
21
100
AcDbEntity
  8
0
100
AcDbCircle
 10
226.1572529355719
 20
162.8615542500673
 30
0.0
 40
4.543307086614173
100
AcDbArc
 50
0.000000000000007
 51
90.0
  0
LINE
  5
537
330
21
100
AcDbEntity
  8
0
100
AcDbLine
 10
230.700560022186
 20
153.4127353524316
 30
0.0
 11
230.700560022186
 21
162.8615542500673
 31
0.0
  0
ARC
  5
538
330
21
100
AcDbEntity
  8
0
100
AcDbCircle
 10
203.6296938804539
 20
164.6725778721028
 30
0.0
 40
4.937007874015748
100
AcDbArc
 50
90.0
 51
180.0
  0
LINE
  5
539
330
21
100
AcDbEntity
  8
0
100
AcDbLine
 10
203.6296938804539
 20
169.6095857461186
 30
0.0
 11
211.4052844316348
 21
169.6095857461186
 31
0.0
  0
LINE
  5
53A
330
21
100
AcDbEntity
  8
0
100
AcDbLine
 10
226.1572529355719
 20
167.4048613366814
 30
0.0
 11
217.2592325469889
 21
167.4048613366814
 31
0.0
  0
ARC
  5
53B
330
21
100
AcDbEntity
  8
0
100
AcDbCircle
 10
203.6296938804539
 20
153.8064361398165
 30
0.0
 40
4.937007874015748
100
AcDbArc
 50
180.0
 51
270.0
  0
ARC
  5
53C
330
21
100
AcDbEntity
  8
0
100
AcDbCircle
 10
226.1572529355719
 20
153.4127353524316
 30
0.0
 40
4.543307086614173
100
AcDbArc
 50
270.0
 51
0.000000000000007
  0
LINE
  5
53D
330
21
100
AcDbEntity
  8
0
100
AcDbLine
 10
226.1572529355753
 20
148.8694282658174
 30
0.0
 11
203.6296938804575
 21
148.8694282658008
 31
0.0
  0
ARC
  5
53E
330
21
100
AcDbEntity
  8
截面层
 62
     1
 48
0.2
370
    35
100
AcDbCircle
 10
211.2946606570098
 20
164.5252644462105
 30
0.0
 40
3.937007874015747
100
AcDbArc
 50
34.44903040827791
 51
85.47417305332432
  0
ARC
  5
53F
330
21
100
AcDbEntity
  8
截面层
 62
     1
 48
0.2
370
    35
100
AcDbCircle
 10
203.8387428519292
 20
164.5252644462105
 30
0.0
 40
3.937007874015747
100
AcDbArc
 50
94.5258269465711
 51
175.4703238704388
  0
ARC
  5
540
330
21
100
AcDbEntity
  8
截面层
 62
     1
 48
0.2
370
    35
100
AcDbCircle
 10
207.5667017544695
 20
117.4284833839139
 30
0.0
 40
51.18110236220473
100
AcDbArc
 50
85.47417305332432
 51
94.5258269465711
  0
ARC
  5
541
330
21
100
AcDbEntity
  8
截面层
 62
     1
 48
0.2
370
    35
100
AcDbCircle
 10
203.8387428519292
 20
153.9537495657119
 30
0.0
 40
3.937007874015747
100
AcDbArc
 50
184.5296761295612
 51
265.4741730533242
  0
ARC
  5
542
330
21
100
AcDbEntity
  8
截面层
 62
     1
 48
0.2
370
    35
100
AcDbCircle
 10
270.5588277387215
 20
159.2395070059612
 30
0.0
 40
70.86614173228347
100
AcDbArc
 50
175.4703238704388
 51
184.5296761295612
  0
ARC
  5
543
330
21
100
AcDbEntity
  8
截面层
 62
     1
 48
0.2
370
    35
100
AcDbCircle
 10
225.9355439952226
 20
162.7278196283318
 30
0.0
 40
3.543307086614173
100
AcDbArc
 50
5.529959953996394
 51
84.3931292734978
  0
ARC
  5
544
330
21
100
AcDbEntity
  8
截面层
 62
     1
 48
0.2
370
    35
100
AcDbCircle
 10
223.20449703006
 20
134.9087983445554
 30
0.0
 40
31.49606299212599
100
AcDbArc
 50
84.3931292734978
 51
90.0
  0
ARC
  5
545
330
21
100
AcDbEntity
  8
截面层
 62
     1
 48
0.2
370
    35
100
AcDbCircle
 10
225.9355439952226
 20
153.5464699741649
 30
0.0
 40
3.543307086614173
100
AcDbArc
 50
275.6068707265022
 51
354.4700400460037
  0
ARC
  5
546
330
21
100
AcDbEntity
  8
截面层
 62
     1
 48
0.2
370
    35
100
AcDbCircle
 10
223.20449703006
 20
181.3654912579413
 30
0.0
 40
31.49606299212599
100
AcDbArc
 50
270.0
 51
275.6068707265022
  0
ARC
  5
547
330
21
100
AcDbEntity
  8
截面层
 62
     1
 48
0.2
370
    35
100
AcDbCircle
 10
178.5194576599812
 20
158.1371448012483
 30
0.0
 40
51.18110236220473
100
AcDbArc
 50
354.4700400460037
 51
5.529959953996394
  0
ARC
  5
548
330
21
100
AcDbEntity
  8
虚线
 62
     3
 48
0.3
370
    35
100
AcDbCircle
 10
225.9355439952226
 20
153.5464699741649
 30
0.0
 40
3.793307086614173
100
AcDbArc
 50
275.6068707265022
 51
354.4700400460037
  0
ARC
  5
549
330
21
100
AcDbEntity
  8
虚线
 62
     3
 48
0.3
370
    35
100
AcDbCircle
 10
178.5194576599812
 20
158.1371448012483
 30
0.0
 40
51.43110236220472
100
AcDbArc
 50
354.4700400460037
 51
5.529959953996394
  0
ARC
  5
54A
330
21
100
AcDbEntity
  8
虚线
 62
     3
 48
0.3
370
    35
100
AcDbCircle
 10
223.20449703006
 20
181.3654912579413
 30
0.0
 40
31.74606299212598
100
AcDbArc
 50
270.0
 51
275.6068707265022
  0
ARC
  5
54B
330
21
100
AcDbEntity
  8
虚线
 62
     3
 48
0.3
370
    35
100
AcDbCircle
 10
225.9355439952226
 20
162.7278196283318
 30
0.0
 40
3.793307086614173
100
AcDbArc
 50
5.529959953996394
 51
84.3931292734978
  0
ARC
  5
54C
330
21
100
AcDbEntity
  8
虚线
 62
     3
 48
0.3
370
    35
100
AcDbCircle
 10
223.20449703006
 20
134.9087983445554
 30
0.0
 40
31.74606299212598
100
AcDbArc
 50
84.3931292734978
 51
90.0
  0
ARC
  5
54D
330
21
100
AcDbEntity
  8
虚线
 62
     3
 48
0.3
370
    35
100
AcDbCircle
 10
211.2946606570098
 20
164.5252644462105
 30
0.0
 40
4.187007874015748
100
AcDbArc
 50
35.97596400561501
 51
85.47417305332432
  0
ARC
  5
54E
330
21
100
AcDbEntity
  8
虚线
 62
     3
 48
0.3
370
    35
100
AcDbCircle
 10
207.5667017544695
 20
117.4284833839139
 30
0.0
 40
51.43110236220472
100
AcDbArc
 50
85.47417305332432
 51
94.5258269465711
  0
ARC
  5
54F
330
21
100
AcDbEntity
  8
虚线
 62
     3
 48
0.3
370
    35
100
AcDbCircle
 10
203.8387428519292
 20
164.5252644462105
 30
0.0
 40
4.187007874015748
100
AcDbArc
 50
94.5258269465711
 51
175.4703238704388
  0
ARC
  5
550
330
21
100
AcDbEntity
  8
虚线
 62
     3
 48
0.3
370
    35
100
AcDbCircle
 10
270.5588277387215
 20
159.2395070059612
 30
0.0
 40
71.11614173228345
100
AcDbArc
 50
175.4703238704388
 51
184.5296761295612
  0
ARC
  5
551
330
21
100
AcDbEntity
  8
虚线
 62
     3
 48
0.3
370
    35
100
AcDbCircle
 10
203.8387428519292
 20
153.9537495657119
 30
0.0
 40
4.187007874015748
100
AcDbArc
 50
184.5296761295612
 51
265.4741730533242
  0
ARC
  5
552
330
21
100
AcDbEntity
  8
虚线
 62
     3
 48
0.3
370
    35
100
AcDbCircle
 10
207.5667017544695
 20
201.0505306280085
 30
0.0
 40
51.43110236220472
100
AcDbArc
 50
265.4741730534288
 51
270.0
  0
ARC
  5
553
330
21
100
AcDbEntity
  8
虚线
 62
    11
 48
0.15
370
    35
100
AcDbCircle
 10
211.2946606570098
 20
164.5252644462105
 30
0.0
 40
3.687007874015747
100
AcDbArc
 50
32.78401849614632
 51
85.47417305332432
  0
ARC
  5
554
330
21
100
AcDbEntity
  8
虚线
 62
    11
 48
0.15
370
    35
100
AcDbCircle
 10
207.5667017544695
 20
117.4284833839139
 30
0.0
 40
50.93110236220472
100
AcDbArc
 50
85.47417305332432
 51
94.5258269465711
  0
ARC
  5
555
330
21
100
AcDbEntity
  8
虚线
 62
    11
 48
0.15
370
    35
100
AcDbCircle
 10
203.8387428519292
 20
164.5252644462105
 30
0.0
 40
3.687007874015747
100
AcDbArc
 50
94.5258269465711
 51
175.4703238704388
  0
ARC
  5
556
330
21
100
AcDbEntity
  8
虚线
 62
    11
 48
0.15
370
    35
100
AcDbCircle
 10
270.5588277387215
 20
159.2395070059612
 30
0.0
 40
70.61614173228345
100
AcDbArc
 50
175.4703238704388
 51
184.5296761295612
  0
ARC
  5
557
330
21
100
AcDbEntity
  8
虚线
 62
    11
 48
0.15
370
    35
100
AcDbCircle
 10
203.8387428519292
 20
153.9537495657119
 30
0.0
 40
3.687007874015747
100
AcDbArc
 50
184.5296761295612
 51
265.4741730533242
  0
ARC
  5
558
330
21
100
AcDbEntity
  8
虚线
 62
    11
 48
0.15
370
    35
100
AcDbCircle
 10
207.5667017544695
 20
201.0505306280085
 30
0.0
 40
50.93110236220472
100
AcDbArc
 50
265.4741730534288
 51
270.0
  0
ARC
  5
559
330
21
100
AcDbEntity
  8
虚线
 62
    11
 48
0.15
370
    35
100
AcDbCircle
 10
223.20449703006
 20
181.3654912579413
 30
0.0
 40
31.24606299212599
100
AcDbArc
 50
270.0
 51
275.6068707265022
  0
ARC
  5
55A
330
21
100
AcDbEntity
  8
虚线
 62
    11
 48
0.15
370
    35
100
AcDbCircle
 10
225.9355439952226
 20
153.5464699741649
 30
0.0
 40
3.293307086614173
100
AcDbArc
 50
275.6068707265022
 51
354.4700400460037
  0
ARC
  5
55B
330
21
100
AcDbEntity
  8
虚线
 62
    11
 48
0.15
370
    35
100
AcDbCircle
 10
178.5194576599812
 20
158.1371448012483
 30
0.0
 40
50.93110236220472
100
AcDbArc
 50
354.4700400460037
 51
5.529959953996394
  0
ARC
  5
55C
330
21
100
AcDbEntity
  8
虚线
 62
    11
 48
0.15
370
    35
100
AcDbCircle
 10
225.9355439952226
 20
162.7278196283318
 30
0.0
 40
3.293307086614173
100
AcDbArc
 50
5.529959953996394
 51
84.3931292734978
  0
ARC
  5
55D
330
21
100
AcDbEntity
  8
虚线
 62
    11
 48
0.15
370
    35
100
AcDbCircle
 10
223.20449703006
 20
134.9087983445554
 30
0.0
 40
31.24606299212599
100
AcDbArc
 50
84.3931292734978
 51
90.0
  0
LINE
  5
55E
330
21
100
AcDbEntity
  8
虚线
 62
     3
 48
0.3
370
    35
100
AcDbLine
 10
223.20449703006
 20
166.6548613366814
 30
0.0
 11
215.3304641203661
 21
166.6548613366814
 31
0.0
  0
LINE
  5
55F
330
21
100
AcDbEntity
  8
截面层
 62
     1
 48
0.2
370
    35
100
AcDbLine
 10
223.20449703006
 20
166.4048613366814
 30
0.0
 11
215.2009381821059
 21
166.4048613366814
 31
0.0
  0
LINE
  5
560
330
21
100
AcDbEntity
  8
虚线
 62
    11
 48
0.15
370
    35
100
AcDbLine
 10
223.20449703006
 20
166.1548613366814
 30
0.0
 11
215.0669674593926
 21
166.1548613366814
 31
0.0
  0
LINE
  5
561
330
21
100
AcDbEntity
  8
虚线
 62
     3
 48
0.3
370
    35
100
AcDbLine
 10
223.20449703006
 20
149.6194282658153
 30
0.0
 11
207.5667017544695
 21
149.6194282658153
 31
0.0
  0
LINE
  5
562
330
21
100
AcDbEntity
  8
截面层
 62
     1
 48
0.2
370
    35
100
AcDbLine
 10
223.20449703006
 20
149.8694282658153
 30
0.0
 11
207.5667017544695
 21
149.8694282658152
 31
0.0
  0
LINE
  5
563
330
21
100
AcDbEntity
  8
虚线
 62
    11
 48
0.15
370
    35
100
AcDbLine
 10
223.20449703006
 20
150.1194282658153
 30
0.0
 11
207.5667017544695
 21
150.1194282658153
 31
0.0
  0
ARC
  5
564
330
21
100
AcDbEntity
  8
截面层
 62
     1
 48
0.2
370
    35
100
AcDbCircle
 10
215.2009381821059
 20
167.2048613366814
 30
0.0
 40
0.8
100
AcDbArc
 50
214.4490304082767
 51
270.0
  0
ARC
  5
565
330
21
100
AcDbEntity
  8
虚线
 62
     3
 48
0.3
370
    35
100
AcDbCircle
 10
215.330464120366
 20
167.4548613366814
 30
0.0
 40
0.8
100
AcDbArc
 50
215.9759640056157
 51
270.0000000000031
  0
ARC
  5
566
330
21
100
AcDbEntity
  8
虚线
 62
    11
 48
0.15
370
    35
100
AcDbCircle
 10
215.0669674593926
 20
166.9548613366814
 30
0.0
 40
0.8
100
AcDbArc
 50
212.7840184961467
 51
270.0
  0
ARC
  5
567
330
21
100
AcDbEntity
  8
0
100
AcDbCircle
 10
220.4734500648973
 20
162.7278196283318
 30
0.0
 40
3.543307086614173
100
AcDbArc
 50
95.60687072650223
 51
174.4700400460036
  0
ARC
  5
568
330
21
100
AcDbEntity
  8
0
100
AcDbCircle
 10
267.8895364001387
 20
158.1371448012493
 30
0.0
 40
51.18110236220473
100
AcDbArc
 50
174.4700400460036
 51
185.5299599540094
  0
ARC
  5
569
330
21
100
AcDbEntity
  8
0
100
AcDbCircle
 10
144.5745757702175
 20
159.2395070059612
 30
0.0
 40
70.86614173228347
100
AcDbArc
 50
355.4703238704389
 51
4.529676129561188
  0
ARC
  5
56A
330
21
100
AcDbEntity
  8
0
100
AcDbCircle
 10
223.20449703006
 20
134.9087983445554
 30
0.0
 40
31.49606299212599
100
AcDbArc
 50
90.0
 51
95.60687072650223
  0
ARC
  5
56B
330
21
100
AcDbEntity
  8
0
100
AcDbCircle
 10
211.2946606570098
 20
164.5252644462105
 30
0.0
 40
3.937007874015747
100
AcDbArc
 50
4.529676129561188
 51
34.44903040827707
  0
ARC
  5
56C
330
21
100
AcDbEntity
  8
0
100
AcDbCircle
 10
211.2946606570098
 20
153.9537495657119
 30
0.0
 40
3.937007874015747
100
AcDbArc
 50
274.5258269465711
 51
355.4703238704389
  0
ARC
  5
56D
330
21
100
AcDbEntity
  8
0
100
AcDbCircle
 10
220.4734500648974
 20
153.5464699741649
 30
0.0
 40
3.543307086614173
100
AcDbArc
 50
185.5299599539964
 51
264.3931292734978
  0
ARC
  5
56E
330
21
100
AcDbEntity
  8
0
100
AcDbCircle
 10
223.20449703006
 20
181.3654912579413
 30
0.0
 40
31.49606299212599
100
AcDbArc
 50
264.3931292734978
 51
270.0
  0
ARC
  5
56F
330
21
100
AcDbEntity
  8
0
100
AcDbCircle
 10
207.5667017544695
 20
201.0505306280085
 30
0.0
 40
51.18110236220473
100
AcDbArc
 50
270.0
 51
274.5258269466757
  0
ARC
  5
570
330
21
100
AcDbEntity
  8
虚线
 62
     3
 48
0.3
370
    35
100
AcDbCircle
 10
202.6274815853262
 20
115.9865701790333
 30
0.0
 40
4.187007874015748
100
AcDbArc
 50
184.5296761295612
 51
265.4741730533242
  0
ARC
  5
571
330
21
100
AcDbEntity
  8
虚线
 62
     3
 48
0.3
370
    35
100
AcDbCircle
 10
206.3554404878665
 20
163.08335124133
 30
0.0
 40
51.43110236220472
100
AcDbArc
 50
265.4741730534288
 51
270.0
  0
ARC
  5
572
330
21
100
AcDbEntity
  8
虚线
 62
     3
 48
0.3
370
    35
100
AcDbCircle
 10
269.3475664721185
 20
121.2723276192827
 30
0.0
 40
71.11614173228345
100
AcDbArc
 50
175.4703238704388
 51
184.5296761295612
  0
LINE
  5
573
330
21
100
AcDbEntity
  8
虚线
 62
     3
 48
0.3
370
    35
100
AcDbLine
 10
221.993235763457
 20
111.6522488791368
 30
0.0
 11
206.3554404878665
 21
111.6522488791368
 31
0.0
  0
ARC
  5
574
330
21
100
AcDbEntity
  8
虚线
 62
     3
 48
0.3
370
    35
100
AcDbCircle
 10
221.993235763457
 20
143.3983118712627
 30
0.0
 40
31.74606299212598
100
AcDbArc
 50
270.0
 51
275.6068707265022
  0
ARC
  5
575
330
21
100
AcDbEntity
  8
虚线
 62
     3
 48
0.3
370
    35
100
AcDbCircle
 10
224.7242827286196
 20
115.5792905874864
 30
0.0
 40
3.793307086614173
100
AcDbArc
 50
275.6068707265022
 51
354.4700400460037
  0
ARC
  5
576
330
21
100
AcDbEntity
  8
虚线
 62
     3
 48
0.3
370
    35
100
AcDbCircle
 10
177.3081963933782
 20
120.1699654145698
 30
0.0
 40
51.43110236220472
100
AcDbArc
 50
354.4700400460037
 51
5.529959953996394
  0
ARC
  5
577
330
21
100
AcDbEntity
  8
虚线
 62
     3
 48
0.3
370
    35
100
AcDbCircle
 10
224.7242827286196
 20
124.7606402416532
 30
0.0
 40
3.793307086614173
100
AcDbArc
 50
5.529959953996394
 51
84.3931292734978
  0
ARC
  5
578
330
21
100
AcDbEntity
  8
虚线
 62
     3
 48
0.3
370
    35
100
AcDbCircle
 10
221.993235763457
 20
96.94161895787686
 30
0.0
 40
31.74606299212598
100
AcDbArc
 50
84.3931292734978
 51
90.0
  0
LINE
  5
579
330
21
100
AcDbEntity
  8
虚线
 62
     3
 48
0.3
370
    35
100
AcDbLine
 10
221.993235763457
 20
128.6876819500028
 30
0.0
 11
214.1192028537631
 21
128.6876819500028
 31
0.0
  0
ARC
  5
57A
330
21
100
AcDbEntity
  8
虚线
 62
     3
 48
0.3
370
    35
100
AcDbCircle
 10
214.1192028537631
 20
129.4876819500029
 30
0.0
 40
0.8
100
AcDbArc
 50
215.975964005615
 51
270.0000000000031
  0
ARC
  5
57B
330
21
100
AcDbEntity
  8
虚线
 62
     3
 48
0.3
370
    35
100
AcDbCircle
 10
210.0833993904068
 20
126.558085059532
 30
0.0
 40
4.187007874015748
100
AcDbArc
 50
35.97596400561418
 51
85.47417305332432
  0
ARC
  5
57C
330
21
100
AcDbEntity
  8
虚线
 62
     3
 48
0.3
370
    35
100
AcDbCircle
 10
206.3554404878665
 20
79.4613039972354
 30
0.0
 40
51.43110236220472
100
AcDbArc
 50
85.47417305332432
 51
94.5258269465711
  0
ARC
  5
57D
330
21
100
AcDbEntity
  8
虚线
 62
     3
 48
0.3
370
    35
100
AcDbCircle
 10
202.6274815853262
 20
126.558085059532
 30
0.0
 40
4.187007874015748
100
AcDbArc
 50
94.5258269465711
 51
175.4703238704388
  0
ARC
  5
57E
330
21
100
AcDbEntity
  8
截面层
 62
     1
 48
0.2
370
    35
100
AcDbCircle
 10
222.5521901173333
 20
66.9895001381155
 30
0.0
 40
31.49606299212599
100
AcDbArc
 50
84.3931292734978
 51
90.0
  0
LINE
  5
57F
330
21
100
AcDbEntity
  8
截面层
 62
     1
 48
0.2
370
    35
100
AcDbLine
 10
222.5521901173333
 20
98.48556313024149
 30
0.0
 11
214.5486312693792
 21
98.48556313024149
 31
0.0
  0
ARC
  5
580
330
21
100
AcDbEntity
  8
截面层
 62
     1
 48
0.2
370
    35
100
AcDbCircle
 10
225.2832370824959
 20
94.8085214218919
 30
0.0
 40
3.543307086614173
100
AcDbArc
 50
5.529959953996394
 51
84.3931292734978
  0
ARC
  5
581
330
21
100
AcDbEntity
  8
截面层
 62
     1
 48
0.2
370
    35
100
AcDbCircle
 10
177.8671507472544
 20
90.21784659480841
 30
0.0
 40
51.18110236220473
100
AcDbArc
 50
354.4700400460037
 51
5.529959953996394
  0
ARC
  5
582
330
21
100
AcDbEntity
  8
截面层
 62
     1
 48
0.2
370
    35
100
AcDbCircle
 10
225.2832370824959
 20
85.62717176772505
 30
0.0
 40
3.543307086614173
100
AcDbArc
 50
275.6068707265022
 51
354.4700400460037
  0
ARC
  5
583
330
21
100
AcDbEntity
  8
截面层
 62
     1
 48
0.2
370
    35
100
AcDbCircle
 10
222.5521901173333
 20
113.4461930515014
 30
0.0
 40
31.49606299212599
100
AcDbArc
 50
270.0
 51
275.6068707265022
  0
LINE
  5
584
330
21
100
AcDbEntity
  8
截面层
 62
     1
 48
0.2
370
    35
100
AcDbLine
 10
222.5521901173333
 20
81.95013005937541
 30
0.0
 11
206.9143948417428
 21
81.95013005937537
 31
0.0
  0
ARC
  5
585
330
21
100
AcDbEntity
  8
截面层
 62
     1
 48
0.2
370
    35
100
AcDbCircle
 10
203.1864359392025
 20
86.034451359272
 30
0.0
 40
3.937007874015747
100
AcDbArc
 50
184.5296761295612
 51
265.4741730533242
  0
ARC
  5
586
330
21
100
AcDbEntity
  8
截面层
 62
     1
 48
0.2
370
    35
100
AcDbCircle
 10
206.9143948417428
 20
133.1312324215686
 30
0.0
 40
51.18110236220473
100
AcDbArc
 50
265.4741730534288
 51
270.0
  0
ARC
  5
587
330
21
100
AcDbEntity
  8
截面层
 62
     1
 48
0.2
370
    35
100
AcDbCircle
 10
269.9065208259948
 20
91.32020879952131
 30
0.0
 40
70.86614173228347
100
AcDbArc
 50
175.4703238704388
 51
184.5296761295612
  0
ARC
  5
588
330
21
100
AcDbEntity
  8
截面层
 62
     1
 48
0.2
370
    35
100
AcDbCircle
 10
203.1864359392025
 20
96.60596623977063
 30
0.0
 40
3.937007874015747
100
AcDbArc
 50
94.5258269465711
 51
175.4703238704388
  0
ARC
  5
589
330
21
100
AcDbEntity
  8
截面层
 62
     1
 48
0.2
370
    35
100
AcDbCircle
 10
206.9143948417428
 20
49.50918517747403
 30
0.0
 40
51.18110236220473
100
AcDbArc
 50
85.47417305332432
 51
94.5258269465711
  0
ARC
  5
58A
330
21
100
AcDbEntity
  8
截面层
 62
     1
 48
0.2
370
    35
100
AcDbCircle
 10
210.6423537442831
 20
96.60596623977063
 30
0.0
 40
3.937007874015747
100
AcDbArc
 50
34.44903040827669
 51
85.47417305332432
  0
ARC
  5
58B
330
21
100
AcDbEntity
  8
截面层
 62
     1
 48
0.2
370
    35
100
AcDbCircle
 10
214.5486312693792
 20
99.28556313024152
 30
0.0
 40
0.8
100
AcDbArc
 50
214.4490304082767
 51
270.0
  0
ARC
  5
58C
330
21
100
AcDbEntity
  8
虚线
 62
    11
 48
0.15
370
    35
100
AcDbCircle
 10
178.0185600879931
 20
60.48307541084272
 30
0.0
 40
50.93110236220472
100
AcDbArc
 50
354.4700400460037
 51
5.529959953996394
  0
ARC
  5
58D
330
21
100
AcDbEntity
  8
虚线
 62
    11
 48
0.15
370
    35
100
AcDbCircle
 10
225.4346464232345
 20
55.89240058375935
 30
0.0
 40
3.293307086614173
100
AcDbArc
 50
275.6068707265022
 51
354.4700400460037
  0
ARC
  5
58E
330
21
100
AcDbEntity
  8
虚线
 62
    11
 48
0.15
370
    35
100
AcDbCircle
 10
222.7035994580718
 20
83.71142186753571
 30
0.0
 40
31.24606299212599
100
AcDbArc
 50
270.0
 51
275.6068707265022
  0
LINE
  5
58F
330
21
100
AcDbEntity
  8
虚线
 62
    11
 48
0.15
370
    35
100
AcDbLine
 10
222.7035994580718
 20
52.46535887540971
 30
0.0
 11
207.0658041824814
 21
52.46535887540971
 31
0.0
  0
ARC
  5
590
330
21
100
AcDbEntity
  8
虚线
 62
    11
 48
0.15
370
    35
100
AcDbCircle
 10
207.0658041824814
 20
103.3964612376029
 30
0.0
 40
50.93110236220472
100
AcDbArc
 50
265.4741730534288
 51
270.0
  0
ARC
  5
591
330
21
100
AcDbEntity
  8
虚线
 62
    11
 48
0.15
370
    35
100
AcDbCircle
 10
203.3378452799411
 20
56.29968017530632
 30
0.0
 40
3.687007874015747
100
AcDbArc
 50
184.5296761295612
 51
265.4741730533242
  0
ARC
  5
592
330
21
100
AcDbEntity
  8
虚线
 62
    11
 48
0.15
370
    35
100
AcDbCircle
 10
270.0579301667334
 20
61.58543761555563
 30
0.0
 40
70.61614173228345
100
AcDbArc
 50
175.4703238704388
 51
184.5296761295612
  0
ARC
  5
593
330
21
100
AcDbEntity
  8
虚线
 62
    11
 48
0.15
370
    35
100
AcDbCircle
 10
203.3378452799411
 20
66.87119505580493
 30
0.0
 40
3.687007874015747
100
AcDbArc
 50
94.5258269465711
 51
175.4703238704388
  0
ARC
  5
594
330
21
100
AcDbEntity
  8
虚线
 62
    11
 48
0.15
370
    35
100
AcDbCircle
 10
207.0658041824814
 20
19.77441399350835
 30
0.0
 40
50.93110236220472
100
AcDbArc
 50
85.47417305332432
 51
94.5258269465711
  0
ARC
  5
595
330
21
100
AcDbEntity
  8
虚线
 62
    11
 48
0.15
370
    35
100
AcDbCircle
 10
210.7937630850217
 20
66.87119505580493
 30
0.0
 40
3.687007874015747
100
AcDbArc
 50
32.78401849614704
 51
85.47417305332432
  0
ARC
  5
596
330
21
100
AcDbEntity
  8
虚线
 62
    11
 48
0.15
370
    35
100
AcDbCircle
 10
214.5660698874045
 20
69.30079194627579
 30
0.0
 40
0.8
100
AcDbArc
 50
212.784018496147
 51
270.0
  0
LINE
  5
597
330
21
100
AcDbEntity
  8
虚线
 62
    11
 48
0.15
370
    35
100
AcDbLine
 10
222.7035994580718
 20
68.50079194627578
 30
0.0
 11
214.5660698874045
 21
68.50079194627578
 31
0.0
  0
ARC
  5
598
330
21
100
AcDbEntity
  8
虚线
 62
    11
 48
0.15
370
    35
100
AcDbCircle
 10
222.7035994580718
 20
37.25472895414981
 30
0.0
 40
31.24606299212599
100
AcDbArc
 50
84.3931292734978
 51
90.0
  0
ARC
  5
599
330
21
100
AcDbEntity
  8
虚线
 62
    11
 48
0.15
370
    35
100
AcDbCircle
 10
225.4346464232345
 20
65.07375023792622
 30
0.0
 40
3.293307086614173
100
AcDbArc
 50
5.529959953996394
 51
84.3931292734978
  0
ENDSEC
  0
SECTION
  2
OBJECTS
  0
DICTIONARY
  5
C
330
0
100
AcDbDictionary
281
     1
  3
ACAD_COLOR
350
1C
  3
ACAD_GROUP
350
D
  3
ACAD_LAYOUT
350
1A
  3
ACAD_MATERIAL
350
1B
  3
ACAD_MLINESTYLE
350
17
  3
ACAD_PLOTSETTINGS
350
19
  3
ACAD_PLOTSTYLENAME
350
E
  0
DICTIONARY
  5
F7
330
2
100
AcDbDictionary
280
     1
281
     1
  3
ACAD_LAYERSTATES
360
F8
  0
DICTIONARY
  5
4A9
330
4A8
100
AcDbDictionary
280
     1
281
     1
  3
ACAD_DIMASSOC
360
4AA
  0
DICTIONARY
  5
4AC
330
4AB
100
AcDbDictionary
280
     1
281
     1
  3
ACAD_DIMASSOC
360
4AD
  0
DICTIONARY
  5
4B3
330
4B2
100
AcDbDictionary
280
     1
281
     1
  3
ACAD_DIMASSOC
360
4B4
  0
DICTIONARY
  5
4E3
330
4E2
100
AcDbDictionary
280
     1
281
     1
  3
ACAD_DIMASSOC
360
4E4
  0
DICTIONARY
  5
4E6
330
4E5
100
AcDbDictionary
280
     1
281
     1
  3
ACAD_DIMASSOC
360
4E7
  0
DICTIONARY
  5
4EA
330
4E9
100
AcDbDictionary
280
     1
281
     1
  3
ACAD_DIMASSOC
360
4EB
  0
DICTIONARY
  5
4ED
330
4EC
100
AcDbDictionary
280
     1
281
     1
  3
ACAD_DIMASSOC
360
4EE
  0
DICTIONARY
  5
4F0
330
4EF
100
AcDbDictionary
280
     1
281
     1
  3
ACAD_DIMASSOC
360
4F1
  0
DICTIONARY
  5
4F3
330
4F2
100
AcDbDictionary
280
     1
281
     1
  3
ACAD_DIMASSOC
360
4F4
  0
DICTIONARY
  5
4F6
330
4F5
100
AcDbDictionary
280
     1
281
     1
  3
ACAD_DIMASSOC
360
4F7
  0
DICTIONARY
  5
4F9
330
4F8
100
AcDbDictionary
280
     1
281
     1
  3
ACAD_DIMASSOC
360
4FA
  0
DICTIONARY
  5
4FC
330
4FB
100
AcDbDictionary
280
     1
281
     1
  3
ACAD_DIMASSOC
360
4FD
  0
DICTIONARY
  5
504
330
503
100
AcDbDictionary
280
     1
281
     1
  3
ACAD_DIMASSOC
360
505
  0
DICTIONARY
  5
1C
102
{ACAD_REACTORS
330
C
102
}
330
C
100
AcDbDictionary
281
     1
  0
DICTIONARY
  5
D
102
{ACAD_REACTORS
330
C
102
}
330
C
100
AcDbDictionary
281
     1
  0
DICTIONARY
  5
1A
102
{ACAD_REACTORS
330
C
102
}
330
C
100
AcDbDictionary
281
     1
  3
Model
350
24
  3
布局1
350
20
  3
布局2
350
28
  0
DICTIONARY
  5
1B
102
{ACAD_REACTORS
330
C
102
}
330
C
100
AcDbDictionary
281
     1
  0
DICTIONARY
  5
17
102
{ACAD_REACTORS
330
C
102
}
330
C
100
AcDbDictionary
281
     1
  3
Standard
350
18
  0
DICTIONARY
  5
19
102
{ACAD_REACTORS
330
C
102
}
330
C
100
AcDbDictionary
281
     1
  0
ACDBDICTIONARYWDFLT
  5
E
102
{ACAD_REACTORS
330
C
102
}
330
C
100
AcDbDictionary
281
     1
  3
Normal
350
F
100
AcDbDictionaryWithDefault
340
F
  0
DICTIONARY
  5
F8
102
{ACAD_REACTORS
330
F7
102
}
330
F7
100
AcDbDictionary
281
     1
  0
DIMASSOC
  5
4AA
102
{ACAD_REACTORS
330
4A9
102
}
330
4A9
100
AcDbDimAssoc
330
4A8
 90
        2
 70
     0
 71
     0
  1
AcDbOsnapPointRef
 72
     3
331
4B0
 73
     2
 91
        0
 40
0.0
 10
0.0
 20
0.0
 30
0.0
 75
     0
  0
DIMASSOC
  5
4AD
102
{ACAD_REACTORS
330
4AC
102
}
330
4AC
100
AcDbDimAssoc
330
4AB
 90
        2
 70
     0
 71
     0
  1
AcDbOsnapPointRef
 72
     3
331
4AE
 73
     2
 91
        0
 40
0.0
 10
0.0
 20
0.0
 30
0.0
 75
     0
  0
DIMASSOC
  5
4B4
102
{ACAD_REACTORS
330
4B3
102
}
330
4B3
100
AcDbDimAssoc
330
4B2
 90
        3
 70
     0
 71
     0
  1
AcDbOsnapPointRef
 72
     1
331
512
 73
     2
 91
        0
 40
1.0
 10
0.0
 20
0.0
 30
2.000000000000000E+50
 75
     0
  1
AcDbOsnapPointRef
 72
    13
331
4D9
 73
     2
 91
        0
 40
0.0
 10
0.0
 20
0.0
 30
2.000000000000000E+50
 75
     0
  0
DIMASSOC
  5
4E4
102
{ACAD_REACTORS
330
4E3
102
}
330
4E3
100
AcDbDimAssoc
330
4E2
 90
        1
 70
     0
 71
     0
  1
AcDbOsnapPointRef
 72
     1
331
4DE
 73
     2
 91
        0
 40
1.0
 10
0.0
 20
0.0
 30
2.000000000000000E+50
 75
     0
  0
DIMASSOC
  5
4E7
102
{ACAD_REACTORS
330
4E6
102
}
330
4E6
100
AcDbDimAssoc
330
4E5
 90
        3
 70
     0
 71
     0
  1
AcDbOsnapPointRef
 72
     2
331
4C1
 73
     2
 91
        0
 40
1.570796326793979
 10
0.0
 20
0.0
 30
0.0
 75
     0
  1
AcDbOsnapPointRef
 72
     8
331
4CF
 73
     2
 91
        0
 40
4.712388980386132
 10
0.0
 20
0.0
 30
0.0
 75
     1
  1
AcDbOsnapPointRef
 72
     2
331
4C1
 73
     2
 91
        0
 40
1.570796326793979
 10
0.0
 20
0.0
 30
0.0
 75
     0
  0
DIMASSOC
  5
4EB
102
{ACAD_REACTORS
330
4EA
102
}
330
4EA
100
AcDbDimAssoc
330
4E9
 90
        3
 70
     0
 71
     0
  1
AcDbOsnapPointRef
 72
     2
331
4B8
 73
     2
 91
        0
 40
1.570796326794896
 10
0.0
 20
0.0
 30
0.0
 75
     0
  1
AcDbOsnapPointRef
 72
     2
331
4B6
 73
     2
 91
        0
 40
4.712388980384688
 10
0.0
 20
0.0
 30
0.0
 75
     0
  0
DIMASSOC
  5
4EE
102
{ACAD_REACTORS
330
4ED
102
}
330
4ED
100
AcDbDimAssoc
330
4EC
 90
        1
 70
     0
 71
     0
  1
AcDbOsnapPointRef
 72
    11
331
4C7
 73
     2
 91
        0
 40
0.000000000000001
 10
0.0
 20
0.0
 30
0.0
332
4CB
 74
     2
 92
        0
 75
     0
  0
DIMASSOC
  5
4F1
102
{ACAD_REACTORS
330
4F0
102
}
330
4F0
100
AcDbDimAssoc
330
4EF
 90
        3
 70
     0
 71
     0
  1
AcDbOsnapPointRef
 72
     2
331
4BF
 73
     2
 91
        0
 40
3.141592653589792
 10
0.0
 20
0.0
 30
0.0
 75
     0
  1
AcDbOsnapPointRef
 72
     2
331
4BD
 73
     2
 91
        0
 40
6.283185307179584
 10
0.0
 20
0.0
 30
0.0
 75
     0
  0
DIMASSOC
  5
4F4
102
{ACAD_REACTORS
330
4F3
102
}
330
4F3
100
AcDbDimAssoc
330
4F2
 90
        2
 70
     0
 71
     0
  1
AcDbOsnapPointRef
 72
     2
331
4B5
 73
     2
 91
        0
 40
6.283185307179584
 10
0.0
 20
0.0
 30
0.0
 75
     0
  0
DIMASSOC
  5
4F7
102
{ACAD_REACTORS
330
4F6
102
}
330
4F6
100
AcDbDimAssoc
330
4F5
 90
        3
 70
     0
 71
     0
  1
AcDbOsnapPointRef
 72
    13
331
4CC
 73
     2
 91
        0
 40
0.0
 10
0.0
 20
0.0
 30
2.000000000000000E+50
 75
     0
  1
AcDbOsnapPointRef
 72
    11
331
4CA
 73
     2
 91
        0
 40
0.0000000000000038
 10
0.0
 20
0.0
 30
0.0
332
4C5
 74
     2
 92
        0
 75
     0
  0
DIMASSOC
  5
4FA
102
{ACAD_REACTORS
330
4F9
102
}
330
4F9
100
AcDbDimAssoc
330
4F8
 90
        2
 70
     0
 71
     0
  1
AcDbOsnapPointRef
 72
     3
331
4BE
 73
     2
 91
        0
 40
0.0
 10
0.0
 20
0.0
 30
0.0
 75
     0
  0
DIMASSOC
  5
4FD
102
{ACAD_REACTORS
330
4FC
102
}
330
4FC
100
AcDbDimAssoc
330
4FB
 90
        2
 70
     0
 71
     0
  1
AcDbOsnapPointRef
 72
     3
331
4B7
 73
     2
 91
        0
 40
0.0
 10
0.0
 20
0.0
 30
0.0
 75
     0
  0
DIMASSOC
  5
505
102
{ACAD_REACTORS
330
504
102
}
330
504
100
AcDbDimAssoc
330
503
 90
        2
 70
     0
 71
     0
  1
AcDbOsnapPointRef
 72
    13
331
4C4
 73
     2
 91
        0
 40
0.0
 10
0.0
 20
0.0
 30
2.000000000000000E+50
 75
     0
  0
LAYOUT
  5
24
102
{ACAD_REACTORS
330
1A
102
}
330
1A
100
AcDbPlotSettings
  1

  2
FX DocuPrint 255-AP
  4

  6

 40
0.0
 41
0.0
 42
0.0
 43
0.0
 44
0.0
 45
0.0
 46
0.0
 47
0.0
 48
0.0
 49
0.0
140
0.0
141
0.0
142
1.0
143
1.0
 70
  1712
 72
     0
 73
     0
 74
     0
  7

 75
     0
147
1.0
 76
     0
 77
     2
 78
   300
148
0.0
149
0.0
100
AcDbLayout
  1
Model
 70
     1
 71
     0
 10
0.0
 20
0.0
 11
12.0
 21
9.0
 12
0.0
 22
0.0
 32
0.0
 14
0.0
 24
0.0
 34
0.0
 15
0.0
 25
0.0
 35
0.0
146
0.0
 13
0.0
 23
0.0
 33
0.0
 16
1.0
 26
0.0
 36
0.0
 17
0.0
 27
1.0
 37
0.0
 76
     0
330
21
  0
LAYOUT
  5
20
102
{ACAD_REACTORS
330
1A
102
}
330
1A
100
AcDbPlotSettings
  1

  2
FX DocuPrint 255-AP
  4

  6

 40
0.0
 41
0.0
 42
0.0
 43
0.0
 44
0.0
 45
0.0
 46
0.0
 47
0.0
 48
0.0
 49
0.0
140
0.0
141
0.0
142
1.0
143
1.0
 70
   688
 72
     0
 73
     0
 74
     5
  7

 75
    16
147
1.0
 76
     0
 77
     2
 78
   300
148
0.0
149
0.0
100
AcDbLayout
  1
布局1
 70
     1
 71
     1
 10
0.0
 20
0.0
 11
420.0
 21
297.0
 12
0.0
 22
0.0
 32
0.0
 14
1.000000000000000E+20
 24
1.000000000000000E+20
 34
1.000000000000000E+20
 15
-1.000000000000000E+20
 25
-1.000000000000000E+20
 35
-1.000000000000000E+20
146
0.0
 13
0.0
 23
0.0
 33
0.0
 16
1.0
 26
0.0
 36
0.0
 17
0.0
 27
1.0
 37
0.0
 76
     0
330
1D
  0
LAYOUT
  5
28
102
{ACAD_REACTORS
330
1A
102
}
330
1A
100
AcDbPlotSettings
  1

  2
FX DocuPrint 255-AP
  4

  6

 40
0.0
 41
0.0
 42
0.0
 43
0.0
 44
0.0
 45
0.0
 46
0.0
 47
0.0
 48
0.0
 49
0.0
140
0.0
141
0.0
142
1.0
143
1.0
 70
   688
 72
     0
 73
     0
 74
     5
  7

 75
    16
147
1.0
 76
     0
 77
     2
 78
   300
148
0.0
149
0.0
100
AcDbLayout
  1
布局2
 70
     1
 71
     2
 10
0.0
 20
0.0
 11
12.0
 21
9.0
 12
0.0
 22
0.0
 32
0.0
 14
0.0
 24
0.0
 34
0.0
 15
0.0
 25
0.0
 35
0.0
146
0.0
 13
0.0
 23
0.0
 33
0.0
 16
1.0
 26
0.0
 36
0.0
 17
0.0
 27
1.0
 37
0.0
 76
     0
330
25
  0
MLINESTYLE
  5
18
102
{ACAD_REACTORS
330
17
102
}
330
17
100
AcDbMlineStyle
  2
STANDARD
 70
     0
  3

 62
   256
 51
90.0
 52
90.0
 71
     2
 49
0.5
 62
   256
  6
BYLAYER
 49
-0.5
 62
   256
  6
BYLAYER
  0
ACDBPLACEHOLDER
  5
F
102
{ACAD_REACTORS
330
E
102
}
330
E
  0
ENDSEC
  0
EOF
